<?xml version="1.0" standalone="no"?>
<!DOCTYPE svg PUBLIC "-//W3C//DTD SVG 1.1//EN" "http://www.w3.org/Graphics/SVG/1.1/DTD/svg11.dtd" >
<svg xmlns="http://www.w3.org/2000/svg">
<metadata></metadata>
<defs>
<font id="iransharpregular" horiz-adv-x="0" >
<font-face units-per-em="2048" ascent="1638" descent="-410" />
<missing-glyph horiz-adv-x="613" />
<glyph unicode="&#x627;&#xfedf;&#xfee0;&#xfeea;" horiz-adv-x="2178" arabic-form="isolated" d="M1935 16q-8 -11 -11.5 -8.5t-3.5 7.5q-2 147 -5 300t-7.5 296t-9.5 267t-10 213q-3 51 -7.5 115t-8.5 121q-4 66 -9 134q47 44 85 78q16 15 32 28.5t29 24t22 16t11 4.5q1 -1 3 -5t3 -11t2 -20q2 -100 2.5 -201t-0.5 -206q0 -59 -0.5 -135.5t-2 -162.5t-4 -176.5 t-5.5 -178.5t-7.5 -168.5t-9.5 -145.5q-18 -41 -35 -77q-14 -31 -29 -62t-24 -47zM1630 1257q14 -131 25.5 -238t20.5 -195t15.5 -161t11 -137.5t6 -124t1.5 -120.5q-3 -21 -7.5 -45.5t-10.5 -49.5t-13.5 -48.5t-16.5 -42.5q-40 -37 -74.5 -56.5t-65 -28t-58.5 -9.5t-55 -1 q-40 0 -74 14t-62.5 35t-51 47t-40 51.5t-30 47.5t-19.5 35q-23 -51 -49.5 -95t-63.5 -75t-88.5 -48t-124.5 -14q-40 1 -73.5 17t-62 41t-50.5 55.5t-38 60.5t-25.5 56t-12.5 43l-125 -111q-6 -2 -31.5 -2.5t-64.5 4t-87 15t-97 30.5q-10 15 -17 39t-10.5 53t-3.5 60.5t4 60 t12.5 52.5t21.5 39q25 27 68 55.5t92.5 57t100 56t91.5 52.5q-2 17 -2 30t-1 23l-1 19q18 17 33.5 33t31.5 30q13 11 25.5 21t23.5 17.5t19.5 10.5t11.5 1q9 -178 17 -324q3 -62 6.5 -123.5t7 -112t6 -86t4.5 -45.5q35 -24 72 -33t84 -11q14 0 33.5 1.5t36.5 3.5q20 2 41 5 q35 15 61.5 41.5t51.5 63.5q1 13 2 18.5t1.5 11t1.5 15.5t2 33v72t-0.5 114t-2 135t-3.5 135t-4.5 115t-5.5 74q0 1 16.5 19t37.5 39.5t39.5 40.5t23.5 21q8 3 9 -9q0 -2 1 -19.5t2 -44t2.5 -59t2.5 -64.5t1.5 -60.5t0.5 -46.5q-2 -69 0.5 -141t5 -136.5t4.5 -114t1 -73.5 q4 -32 17 -61.5t33.5 -53.5t47.5 -41.5t60 -25.5q18 -5 39 -9q18 -3 41.5 -4.5t49.5 2.5q11 2 26 7.5t30 13.5t28 16.5t21 16.5q3 21 -1.5 52t-3.5 60q-2 68 -9 152t-17 171.5t-21.5 171.5t-21.5 152.5t-17.5 115t-9.5 58.5q35 34 63 60q12 11 24 21.5t21.5 19t16.5 13 t9 3.5q5 -2 5 -11t1 -15zM170 440q-5 -45 26 -72t85 -40t122.5 -15t138.5 1q-5 49 -9.5 88t-8.5 72.5t-7.5 64.5t-5.5 65q-57 -25 -111 -43t-99 -36t-79 -37.5t-52 -47.5zM1310 1631q3 0 12.5 -24t18.5 -58.5t15.5 -74t4.5 -69.5q-17 -55 -45 -92.5t-75 -43.5 q-30 0 -56.5 11t-40.5 43q-9 -17 -20.5 -31t-28 -24t-39.5 -15.5t-54 -3.5q-40 5 -62 23.5t-31.5 43.5t-9 54t6 56.5t13.5 49.5t13 34l30 -12q-1 -2 -2 -5t-3 -13q-11 -55 1.5 -94t54.5 -47q28 3 46.5 19.5t31 40.5t19.5 53t13 57l36 3q4 -22 5.5 -43t-6.5 -55q7 -23 25 -38 t47 -14q6 0 19.5 1t28.5 5.5t28 13t17 23.5q0 19 -8 43.5t-18.5 47t-20.5 39.5t-14 22l20 37q8 14 16 25.5t12 11.5zM1110 1643q8 65 -4 115t-29 80l69 56q4 -15 9 -43.5t7 -61t-0.5 -65t-12.5 -55.5q-9 -7 -17 -13q-7 -5 -13.5 -9.5t-8.5 -3.5z" />
<glyph unicode="&#x631;&#xfef3;&#xfe8e;&#x644;" horiz-adv-x="2708" arabic-form="isolated" d="M1827 -190l-138 -138l-142 144l141 143l138 -138l138 138l142 -144l-142 -143zM2512 751q9 -7 26 -42.5t36.5 -87.5t40 -113.5t36 -120.5t24.5 -109t6 -79q-8 -77 -35 -154t-66 -150t-87.5 -140.5t-98.5 -125.5t-98 -105.5t-87.5 -80t-66.5 -48t-34 -11.5 q-20 12 -48.5 35t-54.5 46q-31 27 -62 58q-11 10 -7 13.5t8 5.5q80 30 156.5 79.5t145.5 109t129 124.5t106 125t75.5 111t38.5 83q-12 43 -33.5 90t-49 96.5t-59 99.5t-63.5 100q16 31 35.5 66t37.5 64t31.5 46.5t17.5 14.5zM1207 390v-43.5v-63.5t-0.5 -73t-1.5 -72.5 t-1.5 -62.5t-0.5 -42q-2 -150 -35.5 -261t-108 -184t-193.5 -109t-293 -36q-112 3 -203.5 31.5t-156 84t-100 139t-35.5 196.5t37 257t118 321l68 -43q-28 -68 -53 -141.5t-42.5 -144t-25.5 -134t-1 -111.5q2 -19 8.5 -43.5t21.5 -50t41.5 -50t69.5 -44.5t105 -33.5 t148 -16.5q143 -5 253.5 14t182.5 75t101.5 154.5t11.5 251.5q-3 44 -5.5 75.5t-4.5 56.5t-3.5 46.5t-3.5 45.5t-4.5 53t-5.5 69q-2 26 -5 78.5t-6.5 122t-8 150t-8.5 163.5t-7.5 162.5t-6.5 146t-5 115t-3 69.5q0 5 10 17.5t25.5 28t35 32t38 31t33.5 25t22 12.5q2 0 4 -1 q3 -3 4.5 -35t2 -84.5t0 -120.5t-1.5 -141.5t-2 -148t-1 -140.5q0 -78 -1 -159.5t-2 -159.5t-2.5 -148.5t-2.5 -125.5zM2033 1040q4 1 20.5 -33.5t36 -95t38 -143t26.5 -176t0.5 -195t-39.5 -199.5q-8 -13 -36.5 -28.5t-67 -30t-80 -26t-74.5 -17.5q-13 -2 -35 -2.5 t-44 -1.5q-26 -1 -55 -1v2h-16q-39 0 -77 12t-70 29.5t-55 36.5t-32 34q-8 12 -18 37t-19 55.5t-15 61.5t-6 55q0 75 -2.5 162.5t-6.5 180.5t-9.5 186.5t-10.5 180.5q-13 202 -29 411q12 11 36.5 35.5t50 48.5t46 40t22.5 12q5 -4 6.5 -13t1.5 -16q12 -208 15.5 -378.5 t4 -313.5t-0.5 -263t1 -227q0 -30 1 -50.5t2 -35t2.5 -25t3.5 -19.5q19 -11 42.5 -17t46.5 -9t44 -4t35 -1l40 -1h39.5t44 0.5t40 1t27.5 2.5q17 4 41 9t46.5 11t39.5 13t21 14q4 18 -3.5 57.5t-22 89.5t-33 104.5t-37 103t-33.5 85t-22 50.5q33 55 60 99q12 19 23 37 t20.5 32t16 23t8.5 10z" />
<glyph unicode="&#xfedf;&#xfe82;" horiz-adv-x="1319" arabic-form="isolated" d="M1196 438q-19 -78 -57 -147t-89 -128.5t-113 -108.5t-130 -86.5t-140 -62.5t-143 -37q-8 1 -31 9t-53 19.5t-63 25.5t-61 27.5t-47.5 25.5t-22.5 20q1 4 31 8.5t77.5 11t109.5 17t127.5 28t130.5 42t120 59.5q-43 102 -87.5 191.5t-92.5 171.5t-100 159.5t-109.5 155 t-121.5 158t-135 169.5q19 60 36 107q7 20 14 38.5t13 33t10.5 22t6.5 6.5q1 -1 21 -27.5t53 -72.5t76 -107.5t90 -133t96 -150t94 -157.5t83 -156t63 -145q10 -26 24 -59.5t19 -71.5q5 -24 3.5 -48.5t-3.5 -46.5q22 14 51 51.5t55 84t45 94.5t21 83q3 46 2 96t-4 100t-7 99 t-7 93q-9 118 -19 225t-18 189q-10 96 -18 178q48 46 87 80q16 15 32.5 28.5t29 24t21 15.5t10.5 3q3 -9 7 -55.5t7.5 -118.5t7 -163t6.5 -189.5t4 -199t0.5 -191.5t-3.5 -165.5t-9 -121.5zM242 1495q6 29 18.5 66.5t29 71.5t36.5 57.5t42 25.5q41 2 85 -2t90 -10t92 -11 t92 -5q34 0 64 5.5t54.5 14t44 17.5t33.5 15l17 -21q-12 -20 -35 -48t-55.5 -54.5t-72 -46.5t-84.5 -24q-37 -5 -77.5 -2.5t-79.5 7.5t-74.5 10t-62.5 5q-25 -1 -45.5 -9.5t-37 -21.5t-29 -28t-21.5 -28z" />
<glyph unicode="&#xfee0;&#xfe82;" horiz-adv-x="1417" arabic-form="final" d="M1079 362q-32 -77 -79.5 -141.5t-103.5 -117t-117.5 -93.5t-123.5 -70t-120.5 -47t-107.5 -24q0 -2 -20 5t-50.5 19t-66 27t-67 29.5t-54 27.5t-25.5 21q1 4 31 8t78.5 10t110.5 15.5t128.5 26.5t132 42t120.5 61q-43 102 -87.5 191.5t-92.5 171.5t-100 159.5t-109.5 155 t-121.5 158t-135 169.5q19 60 36 107q7 20 14 38.5t13 33t10.5 22t6.5 6.5q1 -1 21 -27.5t53 -72.5t76 -107.5t90 -133t96 -150t94 -157.5t83 -156t63 -145q10 -26 24 -59.5t19 -71.5q5 -24 3.5 -48.5t-3.5 -46.5q22 14 51 51.5t55 84t45 94.5t21 83q3 46 2 96t-4 100t-7 99 t-7 93q-9 118 -19 225t-18 189q-10 96 -18 178q48 46 87 80q16 15 32.5 28.5t29 24t21 15.5t10.5 3q3 -9 6.5 -59.5t7 -127.5t6.5 -175t4.5 -203.5t2 -212t-0.5 -200.5q11 -117 41.5 -201t73 -139t92 -83.5t97.5 -34.5h17v-206h-17q-46 4 -96 18t-95.5 52.5t-82.5 108 t-56 183.5zM179 1477q6 29 18.5 66.5t29 71.5t36.5 57.5t42 25.5q41 2 85 -2t90 -10t92 -11t92 -5q34 0 64 5.5t54.5 14t44 17.5t33.5 15l17 -21q-12 -20 -35 -48t-55.5 -54.5t-72 -46.5t-84.5 -24q-37 -5 -77.5 -2.5t-79.5 7.5t-74.5 10t-62.5 5q-25 -1 -45.5 -9.5 t-37 -21.5t-29 -28t-21.5 -28z" />
<glyph unicode="&#xfedf;&#xfe84;" horiz-adv-x="1198" arabic-form="isolated" d="M1094 438q-19 -78 -57 -147t-89 -128.5t-113 -108.5t-130 -86.5t-140 -62.5t-143 -37q-8 1 -31 9t-53 19.5t-63 25.5t-61 27.5t-47.5 25.5t-22.5 20q1 4 31 8.5t77.5 11t109.5 17t127.5 28t130.5 42t120 59.5q-43 102 -87.5 191.5t-92.5 171.5t-100 159.5t-109.5 155 t-121.5 158t-135 169.5q19 60 36 107q7 20 14 38.5t13 33t10.5 22t6.5 6.5q1 -1 21 -27.5t53 -72.5t76 -107.5t90 -133t96 -150t94 -157.5t83 -156t63 -145q10 -26 24 -59.5t19 -71.5q5 -24 3.5 -48.5t-3.5 -46.5q22 14 51 51.5t55 84t45 94.5t21 83q3 46 2 96t-4 100t-7 99 t-7 93q-9 118 -19 225t-18 189q-10 96 -18 178q48 46 87 80q16 15 32.5 28.5t29 24t21 15.5t10.5 3q3 -9 7 -55.5t7.5 -118.5t7 -163t6.5 -189.5t4 -199t0.5 -191.5t-3.5 -165.5t-9 -121.5zM74 1544l116 65q-7 4 -22.5 16.5t-32 31.5t-30 44t-15.5 55q-2 29 17 68t49.5 74.5 t68 60t72.5 24.5q50 0 94 -24t80 -88l-26 -13q-9 5 -42 16t-90 11q-29 0 -56 -13.5t-48 -31t-34 -34.5t-13 -24q0 -8 10 -26t31 -36.5t55 -34.5t82 -20q30 4 53 8t42.5 8t36.5 8.5t35 9.5q1 1 -3.5 -14.5t-9.5 -33.5q-6 -22 -14 -49q-9 -2 -19.5 -3.5t-25.5 -4.5t-36.5 -8 t-51.5 -12q-43 -9 -77 -19t-67.5 -23.5t-70.5 -31.5t-85 -43z" />
<glyph unicode="&#xfee0;&#xfe84;" horiz-adv-x="1417" arabic-form="final" d="M1079 362q-32 -77 -79.5 -141.5t-103.5 -117t-117.5 -93.5t-123.5 -70t-120.5 -47t-107.5 -24q0 -2 -20 5t-50.5 19t-66 27t-67 29.5t-54 27.5t-25.5 21q1 4 31 8t78.5 10t110.5 15.5t128.5 26.5t132 42t120.5 61q-43 102 -87.5 191.5t-92.5 171.5t-100 159.5t-109.5 155 t-121.5 158t-135 169.5q19 60 36 107q7 20 14 38.5t13 33t10.5 22t6.5 6.5q1 -1 21 -27.5t53 -72.5t76 -107.5t90 -133t96 -150t94 -157.5t83 -156t63 -145q10 -26 24 -59.5t19 -71.5q5 -24 3.5 -48.5t-3.5 -46.5q22 14 51 51.5t55 84t45 94.5t21 83q3 46 2 96t-4 100t-7 99 t-7 93q-9 118 -19 225t-18 189q-10 96 -18 178q48 46 87 80q16 15 32.5 28.5t29 24t21 15.5t10.5 3q3 -9 6.5 -59.5t7 -127.5t6.5 -175t4.5 -203.5t2 -212t-0.5 -200.5q11 -117 41.5 -201t73 -139t92 -83.5t97.5 -34.5h17v-206h-17q-46 4 -96 18t-95.5 52.5t-82.5 108 t-56 183.5zM79 1568l116 65q-7 4 -22.5 16.5t-32 31.5t-30 44t-15.5 55q-2 29 17 68t49.5 74.5t68 60t72.5 24.5q50 0 94 -24t80 -88l-26 -13q-9 5 -42 16t-90 11q-29 0 -56 -13.5t-48 -31t-34 -34.5t-13 -24q0 -8 10 -26t31 -36.5t55 -34.5t82 -20q30 4 53 8t42.5 8 t36.5 8.5t35 9.5q1 1 -3.5 -14.5t-9.5 -33.5q-6 -22 -14 -49q-9 -2 -19.5 -3.5t-25.5 -4.5t-36.5 -8t-51.5 -12q-43 -9 -77 -19t-67.5 -23.5t-70.5 -31.5t-85 -43z" />
<glyph unicode="&#xfedf;&#xfe88;" horiz-adv-x="1209" arabic-form="isolated" d="M1094 438q-19 -78 -57 -147t-89 -128.5t-113 -108.5t-130 -86.5t-140 -62.5t-143 -37q-8 1 -31 9t-53 19.5t-63 25.5t-61 27.5t-47.5 25.5t-22.5 20q1 4 31 8.5t77.5 11t109.5 17t127.5 28t130.5 42t120 59.5q-43 102 -87.5 191.5t-92.5 171.5t-100 159.5t-109.5 155 t-121.5 158t-135 169.5q19 60 36 107q7 20 14 38.5t13 33t10.5 22t6.5 6.5q1 -1 21 -27.5t53 -72.5t76 -107.5t90 -133t96 -150t94 -157.5t83 -156t63 -145q10 -26 24 -59.5t19 -71.5q5 -24 3.5 -48.5t-3.5 -46.5q22 14 51 51.5t55 84t45 94.5t21 83q3 46 2 96t-4 100t-7 99 t-7 93q-9 118 -19 225t-18 189q-10 96 -18 178q48 46 87 80q16 15 32.5 28.5t29 24t21 15.5t10.5 3q3 -9 7 -55.5t7.5 -118.5t7 -163t6.5 -189.5t4 -199t0.5 -191.5t-3.5 -165.5t-9 -121.5zM506 -579l116 65q-7 4 -22.5 16.5t-32 31.5t-30 44t-15.5 55q-2 29 17 68 t49.5 74.5t68 60t72.5 24.5q50 0 94 -24t80 -88l-26 -13q-9 5 -42 16t-90 11q-29 0 -56 -13.5t-48 -31t-34 -34.5t-13 -24q0 -8 10 -26t31 -36.5t55 -34.5t82 -20q30 4 53 8t42.5 8t36.5 8.5t35 9.5q1 1 -3.5 -14.5t-9.5 -33.5q-6 -22 -14 -49q-9 -2 -19.5 -3.5t-25.5 -4.5 t-36.5 -8t-51.5 -12q-43 -9 -77 -19t-67.5 -23.5t-70.5 -31.5t-85 -43z" />
<glyph unicode="&#xfee0;&#xfe88;" horiz-adv-x="1412" arabic-form="final" d="M1079 362q-32 -77 -79.5 -141.5t-103.5 -117t-117.5 -93.5t-123.5 -70t-120.5 -47t-107.5 -24q0 -2 -20 5t-50.5 19t-66 27t-67 29.5t-54 27.5t-25.5 21q1 4 31 8t78.5 10t110.5 15.5t128.5 26.5t132 42t120.5 61q-43 102 -87.5 191.5t-92.5 171.5t-100 159.5t-109.5 155 t-121.5 158t-135 169.5q19 60 36 107q7 20 14 38.5t13 33t10.5 22t6.5 6.5q1 -1 21 -27.5t53 -72.5t76 -107.5t90 -133t96 -150t94 -157.5t83 -156t63 -145q10 -26 24 -59.5t19 -71.5q5 -24 3.5 -48.5t-3.5 -46.5q22 14 51 51.5t55 84t45 94.5t21 83q3 46 2 96t-4 100t-7 99 t-7 93q-9 118 -19 225t-18 189q-10 96 -18 178q48 46 87 80q16 15 32.5 28.5t29 24t21 15.5t10.5 3q3 -9 6.5 -59.5t7 -127.5t6.5 -175t4.5 -203.5t2 -212t-0.5 -200.5q11 -117 41.5 -201t73 -139t92 -83.5t97.5 -34.5h17v-206h-17q-46 4 -96 18t-95.5 52.5t-82.5 108 t-56 183.5zM689 -515l116 65q-7 4 -22.5 16.5t-32 31.5t-30 44t-15.5 55q-2 29 17 68t49.5 74.5t68 60t72.5 24.5q50 0 94 -24t80 -88l-26 -13q-9 5 -42 16t-90 11q-29 0 -56 -13.5t-48 -31t-34 -34.5t-13 -24q0 -8 10 -26t31 -36.5t55 -34.5t82 -20q30 4 53 8t42.5 8 t36.5 8.5t35 9.5q1 1 -3.5 -14.5t-9.5 -33.5q-6 -22 -14 -49q-9 -2 -19.5 -3.5t-25.5 -4.5t-36.5 -8t-51.5 -12q-43 -9 -77 -19t-67.5 -23.5t-70.5 -31.5t-85 -43z" />
<glyph unicode="&#xfedf;&#xfe8e;" horiz-adv-x="1198" arabic-form="isolated" d="M1094 438q-19 -78 -57 -147t-89 -128.5t-113 -108.5t-130 -86.5t-140 -62.5t-143 -37q-8 1 -31 9t-53 19.5t-63 25.5t-61 27.5t-47.5 25.5t-22.5 20q1 4 31 8.5t77.5 11t109.5 17t127.5 28t130.5 42t120 59.5q-43 102 -87.5 191.5t-92.5 171.5t-100 159.5t-109.5 155 t-121.5 158t-135 169.5q19 60 36 107q7 20 14 38.5t13 33t10.5 22t6.5 6.5q1 -1 21 -27.5t53 -72.5t76 -107.5t90 -133t96 -150t94 -157.5t83 -156t63 -145q10 -26 24 -59.5t19 -71.5q5 -24 3.5 -48.5t-3.5 -46.5q22 14 51 51.5t55 84t45 94.5t21 83q3 46 2 96t-4 100t-7 99 t-7 93q-9 118 -19 225t-18 189q-10 96 -18 178q48 46 87 80q16 15 32.5 28.5t29 24t21 15.5t10.5 3q3 -9 7 -55.5t7.5 -118.5t7 -163t6.5 -189.5t4 -199t0.5 -191.5t-3.5 -165.5t-9 -121.5z" />
<glyph unicode="&#xfee0;&#xfe8e;" horiz-adv-x="1412" arabic-form="final" d="M1079 362q-32 -77 -79.5 -141.5t-103.5 -117t-117.5 -93.5t-123.5 -70t-120.5 -47t-107.5 -24q0 -2 -20 5t-50.5 19t-66 27t-67 29.5t-54 27.5t-25.5 21q1 4 31 8t78.5 10t110.5 15.5t128.5 26.5t132 42t120.5 61q-43 102 -87.5 191.5t-92.5 171.5t-100 159.5t-109.5 155 t-121.5 158t-135 169.5q19 60 36 107q7 20 14 38.5t13 33t10.5 22t6.5 6.5q1 -1 21 -27.5t53 -72.5t76 -107.5t90 -133t96 -150t94 -157.5t83 -156t63 -145q10 -26 24 -59.5t19 -71.5q5 -24 3.5 -48.5t-3.5 -46.5q22 14 51 51.5t55 84t45 94.5t21 83q3 46 2 96t-4 100t-7 99 t-7 93q-9 118 -19 225t-18 189q-10 96 -18 178q48 46 87 80q16 15 32.5 28.5t29 24t21 15.5t10.5 3q3 -9 6.5 -59.5t7 -127.5t6.5 -175t4.5 -203.5t2 -212t-0.5 -200.5q11 -117 41.5 -201t73 -139t92 -83.5t97.5 -34.5h17v-206h-17q-46 4 -96 18t-95.5 52.5t-82.5 108 t-56 183.5z" />
<glyph unicode="&#xfedf;&#xfb51;" horiz-adv-x="1209" d="M1094 409q-19 -78 -57 -147t-89 -128.5t-113 -108.5t-130 -86.5t-140 -62.5t-143 -37q-8 1 -31 9t-53 19.5t-63 25.5t-61 27.5t-47.5 25.5t-22.5 20q1 4 31 8.5t77.5 11t109.5 17t127.5 28t130.5 42t120 59.5q-43 102 -87.5 191.5t-92.5 171.5t-100 159.5t-109.5 155 t-121.5 158t-135 169.5q19 60 36 107q7 20 14 38.5t13 33t10.5 22t6.5 6.5q1 -1 21 -27.5t53 -72.5t76 -107.5t90 -133t96 -150t94 -157.5t83 -156t63 -145q10 -26 24 -59.5t19 -71.5q5 -24 3.5 -48.5t-3.5 -46.5q22 14 51 51.5t55 84t45 94.5t21 83q3 46 2 96t-4 100t-7 99 t-7 93q-9 118 -19 225t-18 189q-10 96 -18 178q48 46 87 80q16 15 32.5 28.5t29 24t21 15.5t10.5 3q3 -9 7 -55.5t7.5 -118.5t7 -163t6.5 -189.5t4 -199t0.5 -191.5t-3.5 -165.5t-9 -121.5zM806 1620q-5 -28 -26 -53t-45 -54q-21 -14 -40.5 -20.5t-37 -9t-33 -2t-27.5 0.5 q-33 3 -65.5 13t-61 21t-51.5 19.5t-36 8.5q-8 0 -19.5 -6t-24.5 -15.5t-26 -21t-23 -21.5l-37 30q54 65 93.5 100.5t59.5 36.5q8 -2 18 -5.5t36 -11.5q60 74 117 115t95 40q9 0 32 -15.5t46.5 -39.5t41 -53t14.5 -57zM753 1617q-9 16 -22 30.5t-27 25t-28 16t-25 4.5 q-31 -3 -65.5 -26.5t-78.5 -55.5q10 -5 39.5 -12.5t66 -10.5t74.5 2.5t66 26.5z" />
<glyph unicode="&#xfee0;&#xfb51;" horiz-adv-x="1417" d="M1079 362q-32 -77 -79.5 -141.5t-103.5 -117t-117.5 -93.5t-123.5 -70t-120.5 -47t-107.5 -24q0 -2 -20 5t-50.5 19t-66 27t-67 29.5t-54 27.5t-25.5 21q1 4 31 8t78.5 10t110.5 15.5t128.5 26.5t132 42t120.5 61q-43 102 -87.5 191.5t-92.5 171.5t-100 159.5t-109.5 155 t-121.5 158t-135 169.5q19 60 36 107q7 20 14 38.5t13 33t10.5 22t6.5 6.5q1 -1 21 -27.5t53 -72.5t76 -107.5t90 -133t96 -150t94 -157.5t83 -156t63 -145q10 -26 24 -59.5t19 -71.5q5 -24 3.5 -48.5t-3.5 -46.5q22 14 51 51.5t55 84t45 94.5t21 83q3 46 2 96t-4 100t-7 99 t-7 93q-9 118 -19 225t-18 189q-10 96 -18 178q48 46 87 80q16 15 32.5 28.5t29 24t21 15.5t10.5 3q3 -9 6.5 -59.5t7 -127.5t6.5 -175t4.5 -203.5t2 -212t-0.5 -200.5q11 -117 41.5 -201t73 -139t92 -83.5t97.5 -34.5h17v-206h-17q-46 4 -96 18t-95.5 52.5t-82.5 108 t-56 183.5zM859 1628q-5 -28 -26 -53t-45 -54q-21 -14 -40.5 -20.5t-37 -9t-33 -2t-27.5 0.5q-33 3 -65.5 13t-61 21t-51.5 19.5t-36 8.5q-8 0 -19.5 -6t-24.5 -15.5t-26 -21t-23 -21.5l-37 30q54 65 93.5 100.5t59.5 36.5q8 -2 18 -5.5t36 -11.5q60 74 117 115t95 40 q9 0 32 -15.5t46.5 -39.5t41 -53t14.5 -57zM806 1625q-9 16 -22 30.5t-27 25t-28 16t-25 4.5q-31 -3 -65.5 -26.5t-78.5 -55.5q10 -5 39.5 -12.5t66 -10.5t74.5 2.5t66 26.5z" />
<glyph unicode="&#x66e;" horiz-adv-x="624" d="M424 879q4 1 20 -28.5t35 -82.5t36.5 -126.5t25 -160t-0.5 -182.5t-39 -194q-30 -27 -82 -46.5t-115 -32.5t-133 -19.5t-136 -6.5h-35q-27 0 -50 11q-20 9 -37 30t-19 61q2 39 18.5 60t36.5 31q23 11 51 13h31q32 0 74.5 2.5t87 6.5t88 9t78.5 10.5t57 11t25 10.5 q3 21 -4.5 56.5t-21 77.5t-31 87.5t-34.5 85.5t-32 70.5t-22 44.5q33 55 60 99q12 19 23 37t20.5 32t16 23t8.5 10z" />
<glyph unicode="&#x66e;" horiz-adv-x="781" d="M-105 103q0 23 9 42t23.5 32.5t33.5 21t39 7.5q82 1 166 12q36 4 71.5 11.5t65.5 18t52 25t30 33.5q2 34 -5.5 79t-16.5 87q-11 48 -25 99q35 37 63 66q24 25 45 44.5t25 16.5l3.5 -17.5t8.5 -46.5t10.5 -67.5t10 -80.5t7 -85.5t1.5 -82.5q28 -29 71 -53q37 -20 94.5 -38 t121.5 -21h9v-206h-9q-48 0 -106.5 13t-105.5 35.5t-83 52t-59 62.5q-21 -32 -71.5 -61.5t-113.5 -52t-129 -36t-98 -13.5h-33q-20 0 -39 7t-33.5 20.5t-23.5 32.5t-9 43z" />
<glyph unicode="&#x66e;" horiz-adv-x="1966" d="M976 -24q-65 0 -145 2.5t-163.5 13t-165.5 32t-151 60t-120 97t-73 142t-9 195.5t72 258l73 -37q-40 -106 -41.5 -185.5t25 -138.5t75.5 -98.5t110.5 -64.5t130.5 -38.5t135 -19t124.5 -6t98.5 -0.5q61 0 131 3.5t141 12.5t140 24.5t129.5 40.5t109.5 59t79 81 q19 30 32 54.5t23 47.5t19 47.5t21 53.5l61 -18q-8 -37 -13 -60t-10.5 -44.5t-11.5 -47.5t-15 -68q1 -62 23.5 -96t54 -50t64.5 -19t56 -3v-206q-78 -2 -130 15t-85 49t-50.5 76.5t-25.5 96.5q-63 -74 -144 -123.5t-174 -80.5t-195 -44t-206 -13z" />
<glyph unicode="&#x66f;" horiz-adv-x="892" d="M70 206q62 0 133.5 1t141 6t133.5 17t111.5 33t73 54t20.5 81q-29 -8 -66 -13q-32 -5 -76 -6.5t-100 3.5q-158 15 -236.5 84t-61.5 188q1 13 6.5 46.5t19 76t35.5 89t55.5 85.5t80 64t108.5 26q54 0 98.5 -23.5t80 -63t62 -91.5t46 -108t32 -113t18.5 -106 q15 -117 4 -202.5t-47 -145t-96.5 -96.5t-144.5 -57.5t-191.5 -27.5t-237.5 -7h-72q-16 0 -34.5 6t-34 19t-25.5 32t-10 45q1 27 10.5 46.5t24.5 32.5t33.5 19t35.5 6h70zM669 571q-4 12 -11.5 38t-21 58.5t-32.5 66.5t-45 62.5t-59.5 46.5t-75.5 18q-44 0 -76 -13.5 t-55 -34.5t-37.5 -46t-23 -48.5t-12 -42t-3.5 -25.5q9 -17 32.5 -31.5t56.5 -25.5t73 -19t81 -11q58 -5 98 -4t65 3q29 3 46 8z" />
<glyph unicode="&#x66f;" horiz-adv-x="935" d="M9 206h98h37.5h51t51 0.5t38.5 0.5q-12 15 -25.5 32t-27 42t-26.5 59t-25 84q0 39 9 88t26.5 99t43.5 97.5t61 84.5t78 59t94 22q48 0 86 -20.5t67.5 -54.5t51 -78t36 -91t22.5 -94t10 -87q-9 -51 -17 -83t-18.5 -55.5t-24 -45t-32.5 -52.5q14 -3 40.5 -4.5t55 -2 t64.5 -0.5h49h64v-206h-73q-17 -1 -57 1.5t-77 6.5t-77 10t-76.5 13t-65.5 14.5t-43 15.5q-11 -8 -37 -15.5t-61 -14t-74.5 -12.5t-76.5 -10t-68.5 -6.5t-49.5 -2.5h-104h-7q-40 0 -72 26t-33 75q0 24 8.5 43.5t23.5 33t34 21t39 7.5h9zM673 456q-10 31 -30.5 68.5 t-49.5 70.5t-65 55t-76 22q-39 0 -74 -19.5t-61.5 -52t-42 -74t-15.5 -85.5q6 -23 28 -49.5t53.5 -50.5t70 -44t77.5 -30q16 6 45 21.5t58 40t52.5 56.5t29.5 71z" />
<glyph unicode="&#x66f;" horiz-adv-x="1457" d="M1027 756q57 -4 103 -30.5t81 -68.5t61 -96.5t43.5 -114.5t28 -122t15.5 -118h114v-206h-116q-7 -139 -52.5 -250t-129.5 -188.5t-205 -119t-280 -41.5q-119 0 -218 29t-170.5 88.5t-112.5 150t-45 213.5t31.5 279t117.5 347l69 -38q-34 -108 -63 -211.5t-41 -195.5 t-1 -170t57.5 -136t135 -93t231.5 -40q128 1 227 29.5t169.5 79t112.5 119t56 148.5h-133q-50 0 -99.5 5t-95 18.5t-85 36.5t-69 58.5t-46.5 85.5t-17 118q0 30 9 73.5t27 92t45.5 96.5t63.5 86t81 62t98 24h2zM1251 206q-4 17 -11 49.5t-19.5 71.5t-32 80t-47 75t-65 55.5 t-86.5 21.5h-2q-39 0 -70 -15t-55 -38t-41 -50.5t-27.5 -53.5t-15 -46.5t-2.5 -29.5q4 -24 21 -46t49.5 -38.5t80.5 -26t115 -9.5h208z" />
<glyph unicode="&#x672;" horiz-adv-x="613" d="M582 0q-90 0 -155.5 22t-108 63.5t-63.5 101t-21 134.5t-3.5 165t-9 186.5t-13 195.5t-14.5 191q-18 216 -39 440q7 7 23 22t35.5 32.5t40 35.5t38 32t29 22t12.5 5q5 -4 6.5 -13.5t1.5 -16.5q12 -207 17 -386t7 -331.5t2 -281t2 -234.5q1 -30 2 -50.5t2 -35.5t2.5 -25.5 t2.5 -19.5q19 -11 47 -19.5t57.5 -15t55 -10t39.5 -3.5h48v-206h-43zM-79 1858q21 29 43 53q19 20 42.5 38.5t48.5 23.5q24 0 56 -8.5t66 -18.5t68 -17.5t61 -5.5q-12 10 -28.5 23t-31.5 30t-26.5 40t-13.5 52t17 68t49 74t67.5 59.5t72.5 24.5q50 0 93.5 -23.5t78.5 -87.5 l-25 -14q-9 5 -42 16t-89 11q-29 0 -56 -13.5t-47.5 -31t-33.5 -34.5t-13 -23q0 -8 9.5 -26t30.5 -36.5t54.5 -34t81.5 -19.5q30 4 53.5 8t42.5 8t35.5 8t34.5 9q1 1 -3 -14t-9 -33q-6 -21 -15 -49q-30 -17 -80 -33.5t-102.5 -29.5t-99.5 -21.5t-73 -8.5q-21 0 -49 9.5 t-55 20.5t-50.5 20t-35.5 9q-11 -2 -20.5 -6t-20.5 -11t-24.5 -17.5t-31.5 -26.5z" />
<glyph unicode="&#x673;" horiz-adv-x="600" d="M562 0q-90 0 -155.5 22t-108 63.5t-63.5 101t-21 134.5t-3.5 165t-9 186.5t-13 195.5t-14.5 191q-18 216 -39 440q7 7 23 22t35.5 32.5t40 35.5t38 32t29 22t12.5 5q5 -4 6.5 -13.5t1.5 -16.5q12 -207 17 -386t7 -331.5t2 -281t2 -234.5q1 -30 2 -50.5t2 -35.5t2.5 -25.5 t2.5 -19.5q19 -11 47 -19.5t57.5 -15t55 -10t39.5 -3.5h48v-206h-43zM-28 -550q21 29 43 53q19 20 42.5 38.5t48.5 23.5q24 0 56 -8.5t66 -18.5t68 -17.5t61 -5.5q-12 10 -28.5 23t-31.5 30t-26.5 40t-13.5 52t17 68t49 74t67.5 59.5t72.5 24.5q50 0 93.5 -23.5t78.5 -87.5 l-25 -14q-9 5 -42 16t-89 11q-29 0 -56 -13.5t-47.5 -31t-33.5 -34.5t-13 -23q0 -8 9.5 -26t30.5 -36.5t54.5 -34t81.5 -19.5q30 4 53.5 8t42.5 8t35.5 8t34.5 9q1 1 -3 -14t-9 -33q-6 -21 -15 -49q-30 -17 -80 -33.5t-102.5 -29.5t-99.5 -21.5t-73 -8.5q-21 0 -49 9.5 t-55 20.5t-50.5 20t-35.5 9q-11 -2 -20.5 -6t-20.5 -11t-24.5 -17.5t-31.5 -26.5z" />
<glyph unicode="&#x675;" horiz-adv-x="591" d="M562 0q-90 0 -155.5 22t-108 63.5t-63.5 101t-21 134.5t-3.5 165t-9 186.5t-13 195.5t-14.5 191q-18 216 -39 440q7 7 23 22t35.5 32.5t40 35.5t38 32t29 22t12.5 5q5 -4 6.5 -13.5t1.5 -16.5q12 -207 17 -386t7 -331.5t2 -281t2 -234.5q1 -30 2 -50.5t2 -35.5t2.5 -25.5 t2.5 -19.5q19 -11 47 -19.5t57.5 -15t55 -10t39.5 -3.5h48v-206h-43zM433 1544l116 65q-7 4 -22.5 16.5t-32 31.5t-30 44t-15.5 55q-2 29 17 68t49.5 74.5t68 60t72.5 24.5q50 0 94 -24t80 -88l-26 -13q-9 5 -42 16t-90 11q-29 0 -56 -13.5t-48 -31t-34 -34.5t-13 -24 q0 -8 10 -26t31 -36.5t55 -34.5t82 -20q30 4 53 8t42.5 8t36.5 8.5t35 9.5q1 1 -3.5 -14.5t-9.5 -33.5q-6 -22 -14 -49q-9 -2 -19.5 -3.5t-25.5 -4.5t-36.5 -8t-51.5 -12q-43 -9 -77 -19t-67.5 -23.5t-70.5 -31.5t-85 -43z" />
<glyph unicode="&#x676;" horiz-adv-x="950" d="M613 0q-75 0 -151 12.5t-137.5 47.5t-100.5 98t-40 164q0 30 9 73.5t27 92t45.5 96.5t63.5 86t81 62t98 24h2q58 -4 103.5 -30.5t80.5 -68.5t61 -96.5t43.5 -114.5t28 -122t15.5 -118h114v-206h-117q-8 -108 -49.5 -196.5t-100 -157.5t-126.5 -119.5t-130 -83 t-109.5 -47.5t-65.5 -14q-5 0 -7 1q-21 10 -54 27.5t-65.5 36t-59 34.5t-34.5 24q-9 8 -4 11.5t7 4.5q151 43 271.5 98t207 117.5t138.5 129.5t67 134h-112zM734 206q-4 17 -11 49.5t-19.5 71.5t-32 80t-47 75t-65 55.5t-86.5 21.5h-2q-39 0 -70 -15t-55 -38t-41 -50.5 t-27.5 -53.5t-15 -46.5t-2.5 -29.5q4 -24 24 -46t55 -38.5t86 -26t118 -9.5h191zM554 922l116 65q-7 4 -22.5 16.5t-32 31.5t-30 44t-15.5 55q-2 29 17 68t49.5 74.5t68 60t72.5 24.5q50 0 94 -24t80 -88l-26 -13q-9 5 -42 16t-90 11q-29 0 -56 -13.5t-48 -31t-34 -34.5 t-13 -24q0 -8 10 -26t31 -36.5t55 -34.5t82 -20q30 4 53 8t42.5 8t36.5 8.5t35 9.5q1 1 -3.5 -14.5t-9.5 -33.5q-6 -22 -14 -49q-9 -2 -19.5 -3.5t-25.5 -4.5t-36.5 -8t-51.5 -12q-43 -9 -77 -19t-67.5 -23.5t-70.5 -31.5t-85 -43z" />
<glyph unicode="&#x678;" horiz-adv-x="1590" d="M1606 0h-68.5t-77.5 2.5t-85 9.5t-90 21q84 -42 127 -75t57 -52l-12 -168q-15 -43 -66.5 -98.5t-133 -106t-191 -88t-240.5 -44.5q-111 -6 -217 6t-194 50t-153.5 106.5t-95.5 175t-19.5 255t73.5 347.5l15.5 46.5t21.5 61t24.5 64t23.5 55.5l69 -36q-12 -37 -29 -88.5 t-34 -108.5q-13 -52 -24 -112.5t-14.5 -124.5t2.5 -127.5t28 -121t61.5 -105t102 -80t151 -46.5t208.5 -3q115 9 213 29.5t171.5 47.5t117.5 58.5t52 62.5q-17 15 -65 46t-116 68.5t-149 76.5t-162 72q-3 0 2.5 12.5t15 31.5t21 40.5t22.5 40.5t19.5 31.5t10.5 12.5 q105 -14 189.5 -22t158.5 -11.5t141.5 -4.5t137.5 -1v-206zM853 367l116 65q-7 4 -22.5 16.5t-32 31.5t-30 44t-15.5 55q-2 29 17 68t49.5 74.5t68 60t72.5 24.5q50 0 94 -24t80 -88l-26 -13q-9 5 -42 16t-90 11q-29 0 -56 -13.5t-48 -31t-34 -34.5t-13 -24q0 -8 10 -26 t31 -36.5t55 -34.5t82 -20q30 4 53 8t42.5 8t36.5 8.5t35 9.5q1 1 -3.5 -14.5t-9.5 -33.5q-6 -22 -14 -49q-9 -2 -19.5 -3.5t-25.5 -4.5t-36.5 -8t-51.5 -12q-43 -9 -77 -19t-67.5 -23.5t-70.5 -31.5t-85 -43z" />
<glyph unicode="&#x6aa;" horiz-adv-x="1970" d="M-35 210q109 0 269 -3t382.5 -3.5t512.5 4.5t659 22q-14 32 -54 61t-89 52t-99.5 38.5t-84.5 20.5q-18 2 -69.5 4t-125 4t-162.5 4.5t-181.5 5t-182 4t-164.5 3t-129.5 2.5t-75.5 1q-62 3 -104.5 20t-69.5 41.5t-40.5 52t-18 53t-2.5 45t6 26.5q0 32 28.5 70t78 78.5 t117.5 82.5t147 82.5t166.5 78.5t176 70.5t175 58.5t163.5 42q1 -4 -3 -15t-11 -27t-16.5 -35t-18.5 -38q-23 -45 -51 -99q-71 -11 -158 -38t-175.5 -62t-171.5 -74t-147.5 -74.5t-103.5 -62.5t-39 -38q4 -10 9 -21t16.5 -20t32.5 -15t57 -4q14 1 63.5 0t121 -3t159.5 -4.5 t179 -5.5t179 -6t160.5 -5t122.5 -3.5t65 -1.5q79 -13 155 -46t137 -74t100 -84.5t45 -77.5q-4 -32 -10 -59.5t-14.5 -54.5t-18 -56t-19.5 -64q-227 -20 -437.5 -32.5t-398 -19.5t-350 -9t-295 -2t-231.5 1t-160 1z" />
<glyph unicode="&#x6aa;" horiz-adv-x="2167" d="M-25 206q109 0 269.5 -1t383 0.5t512.5 7t658 17.5q-14 32 -46.5 63t-76.5 55t-97 39t-107 15q-18 2 -69.5 4t-125 4t-162.5 4.5t-181.5 5t-182 4t-164.5 3t-129.5 2.5t-75.5 1q-62 3 -104.5 20t-69.5 41.5t-40.5 52t-18 53t-2.5 45t6 26.5q0 32 28.5 70t78 78.5 t117.5 82.5t147 82.5t166.5 78.5t176 70.5t175 58.5t163.5 42q1 -4 -3 -15t-11 -27t-16.5 -35t-18.5 -38q-23 -45 -51 -99q-72 -11 -158.5 -38t-175 -62t-171.5 -74t-147.5 -74.5t-103.5 -62.5t-39 -38q4 -10 9 -21t16.5 -20t32.5 -15t57 -4q14 1 63.5 0t121 -3t159.5 -4.5 t179 -5.5t179 -6t160.5 -5t122.5 -3.5t65 -1.5q90 0 167.5 -31.5t135.5 -76t93 -92.5t41 -82q6 -17 19.5 -33.5t45 -30t85.5 -21t142 -6.5v-206h-121.5t-106.5 8q-20 3 -53.5 23t-68.5 54q-17 -16 -73.5 -28.5t-141.5 -22t-194 -15.5t-230.5 -10.5t-250 -6.5t-253.5 -3 t-241.5 -1t-213.5 0.5t-169.5 1t-108.5 0.5z" />
<glyph unicode="&#x6aa;" horiz-adv-x="2659" d="M212 -2q-11 1 -33.5 18.5t-48.5 42.5t-51.5 54t-42 53t-20 39t14.5 13q63 -9 183.5 -22.5t284.5 -24.5t365 -17.5t425 -1.5t464.5 23.5t483.5 57.5q-9 21 -31.5 44.5t-52.5 46t-64.5 43t-69 37t-66 27.5t-54.5 14q-18 2 -69.5 2t-125 -0.5t-162.5 -2t-181.5 -3.5t-182 -4 t-164.5 -3.5t-129.5 -2.5t-75.5 -1q-63 3 -105 20t-69 41.5t-40.5 52t-18 53t-2.5 45t6 26.5q0 32 28.5 70t78 78.5t117.5 82.5t147 82.5t166.5 78.5t176 70.5t175 58.5t163.5 42q1 -4 -3 -15t-11 -27t-16.5 -35t-18.5 -38q-23 -45 -51 -99q-72 -11 -158.5 -38t-175 -62 t-171.5 -74t-147.5 -74.5t-103.5 -62.5t-39 -38q4 -10 9 -21t16.5 -20t32.5 -15t57 -4q14 1 63.5 2t121 2t159.5 2t179 2.5t179 2.5t160.5 1.5t122.5 1t65 0.5q62 0 119.5 -19t109 -49t95 -68t76 -75.5t52.5 -71.5t24 -57v1q25 -30 50.5 -46t58.5 -22.5t77.5 -7.5t108.5 -1 v-206q-63 2 -116 -0.5t-98 6t-84.5 34t-76.5 84.5q-23 -31 -94 -54t-175.5 -39t-235.5 -26t-275 -15.5t-293.5 -7.5t-291 -1t-268 3.5t-223.5 5t-158 5t-72 3.5z" />
<glyph unicode="&#x671;" horiz-adv-x="613" arabic-form="final" d="M582 0q-90 0 -155.5 22t-108 63.5t-63.5 101t-21 134.5t-3.5 165t-9 186.5t-13 195.5t-14.5 191q-18 216 -39 440q7 7 23 22t35.5 32.5t40 35.5t38 32t29 22t12.5 5q5 -4 6.5 -13.5t1.5 -16.5q12 -207 17 -386t7 -331.5t2 -281t2 -234.5q1 -30 2 -50.5t2 -35.5t2.5 -25.5 t2.5 -19.5q19 -11 47 -19.5t57.5 -15t55 -10t39.5 -3.5h48v-206h-43zM545 1903q-5 -28 -26 -53t-45 -54q-21 -14 -40.5 -20.5t-37 -9t-33 -2t-27.5 0.5q-33 3 -65.5 13t-61 21t-51.5 19.5t-36 8.5q-8 0 -19.5 -6t-24.5 -15.5t-26 -21t-23 -21.5l-37 30q54 65 93.5 100.5 t59.5 36.5q8 -2 18 -5.5t36 -11.5q60 74 117 115t95 40q9 0 32 -15.5t46.5 -39.5t41 -53t14.5 -57zM492 1900q-9 16 -22 30.5t-27 25t-28 16t-25 4.5q-31 -3 -65.5 -26.5t-78.5 -55.5q10 -5 39.5 -12.5t66 -10.5t74.5 2.5t66 26.5z" />
<glyph unicode="&#x67e;" horiz-adv-x="1975" arabic-form="final" d="M975 -24q-65 0 -145 2.5t-163.5 13t-165.5 32t-151 60t-120 97t-73 142t-9 195.5t72 258l73 -37q-40 -106 -41.5 -185.5t25 -138.5t75.5 -98.5t110.5 -64.5t130.5 -38.5t135 -19t124.5 -6t98.5 -0.5q61 0 131 3.5t141 12.5t140 24.5t129.5 40.5t109.5 59t79 81 q19 30 32 54.5t23 47.5t19 47.5t21 53.5l61 -18q-8 -37 -13 -60t-10.5 -44.5t-11.5 -47.5t-15 -68q1 -62 23.5 -96t54 -50t64.5 -19t56 -3v-206q-78 -2 -130 15t-85 49t-50.5 76.5t-25.5 96.5q-63 -74 -144 -123.5t-174 -80.5t-195 -44t-206 -13zM1125 -211l148 -149 l-147 -149l-150 150zM771 -211l150 -149l-149 -149l-148 150zM807 -647l141 141l143 -142l-141 -141z" />
<glyph unicode="&#x67e;" horiz-adv-x="766" arabic-form="initial" d="M529 870q4 1 20 -27t35 -79.5t36.5 -122.5t25 -155.5t-0.5 -179.5t-39 -193q-30 -27 -87 -48t-132.5 -35.5t-165.5 -22t-186 -7.5h-35q-27 0 -50 11q-20 9 -37 30t-19 61q2 39 18.5 60t36.5 31q23 11 51 13h31q112 0 205 6.5t160.5 15.5t106.5 19t43 17q4 18 -3 51.5 t-20.5 74t-31.5 84t-35.5 82.5t-32.5 69l-22 44q33 55 60 99q12 19 23 37t20.5 32t16 23t8.5 10zM535 -232l148 -149l-147 -149l-150 150zM181 -232l150 -149l-149 -149l-148 150zM217 -668l141 141l143 -142l-141 -141z" />
<glyph unicode="&#x67e;" horiz-adv-x="893" arabic-form="medial" d="M-105 103q0 23 9 42t23.5 32.5t33.5 21t39 7.5q122 1 216 12q36 4 76.5 11.5t70.5 18t52 25t30 33.5q2 34 -5.5 79t-16.5 87q-11 48 -25 99q35 37 63 66q24 25 45 44.5t25 16.5l3.5 -17.5t8.5 -46.5t10.5 -67.5t10 -80.5t7 -85.5t1.5 -82.5q28 -29 71 -53 q37 -20 99.5 -38t156.5 -21h9v-206h-9q-78 0 -141.5 13t-110.5 35.5t-83 52t-59 62.5q-21 -32 -71.5 -61.5t-118.5 -52t-139 -36t-133 -13.5h-43q-20 0 -39 7t-33.5 20.5t-23.5 32.5t-9 43zM624 -234l148 -149l-147 -149l-150 150zM270 -234l150 -149l-149 -149l-148 150z M306 -670l141 141l143 -142l-141 -141z" />
<glyph unicode="&#x679;" horiz-adv-x="1975" arabic-form="final" d="M976 -24q-65 0 -145 2.5t-163.5 13t-165.5 32t-151 60t-120 97t-73 142t-9 195.5t72 258l73 -37q-40 -106 -41.5 -185.5t25 -138.5t75.5 -98.5t110.5 -64.5t130.5 -38.5t135 -19t124.5 -6t98.5 -0.5q61 0 131 3.5t141 12.5t140 24.5t129.5 40.5t109.5 59t79 81 q19 30 32 54.5t23 47.5t19 47.5t21 53.5l61 -18q-8 -37 -13 -60t-10.5 -44.5t-11.5 -47.5t-15 -68q1 -62 23.5 -96t54 -50t64.5 -19t56 -3v-206q-78 -2 -130 15t-85 49t-50.5 76.5t-25.5 96.5q-63 -74 -144 -123.5t-174 -80.5t-195 -44t-206 -13zM685 657q2 5 11 3 q17 -3 37.5 -6l41 -6t39.5 -5t33 -2l35 45q8 14 12.5 35t6.5 41q3 23 3 47q-1 55 -4.5 118.5t-8.5 120.5t-10 99t-8 53q5 5 17.5 16.5t26 23.5t24.5 20.5t13 8.5t2.5 -3t1.5 -14q1 -12 2.5 -52.5t3.5 -92t3 -105t0 -90.5q0 -9 -1 -27t-4.5 -40.5t-10 -46.5t-16.5 -43 q29 37 67 78t79.5 75.5t83 56.5t77.5 22q41 0 69 -13.5t44.5 -34.5t24.5 -46.5t10.5 -50.5t0.5 -47t-5 -34q-10 -26 -21 -51q-9 -21 -18.5 -44t-17.5 -40q-12 -11 -36.5 -25.5t-60.5 -27t-81.5 -22t-99.5 -10.5q-24 0 -60 0.5t-75 2t-75 4t-60 6.5q-15 9 -32 24t-31.5 31 t-24 29.5t-8.5 18.5zM1330 719q3 10 5.5 26t2 35t-5 38t-17.5 34.5t-35 24.5t-56 8q-41 -1 -78 -16.5t-70 -38t-61.5 -50.5t-51 -55t-40 -50t-27.5 -37l65 -2.5t90 0.5q29 -1 70 4.5t81.5 16t75.5 26t52 36.5z" />
<glyph unicode="&#x679;" horiz-adv-x="761" arabic-form="initial" d="M-10 1192q2 5 11 3q17 -3 37.5 -6l41 -6t39.5 -5t33 -2l35 45q8 14 12.5 35t6.5 41q3 23 3 47q-1 55 -4.5 118.5t-8.5 120.5t-10 99t-8 53q5 5 17.5 16.5t26 23.5t24.5 20.5t13 8.5t2.5 -3t1.5 -14q1 -12 2.5 -52.5t3.5 -92t3 -105t0 -90.5q0 -9 -1 -27t-4.5 -40.5 t-10 -46.5t-16.5 -43q29 37 67 78t79.5 75.5t83 56.5t77.5 22q41 0 69 -13.5t44.5 -34.5t24.5 -46.5t10.5 -50.5t0.5 -47t-5 -34q-10 -26 -21 -51q-9 -21 -18.5 -44t-17.5 -40q-12 -11 -36.5 -25.5t-60.5 -27t-81.5 -22t-99.5 -10.5q-24 0 -60 0.5t-75 2t-75 4t-60 6.5 q-15 9 -32 24t-31.5 31t-24 29.5t-8.5 18.5zM635 1254q3 10 5.5 26t2 35t-5 38t-17.5 34.5t-35 24.5t-56 8q-41 -1 -78 -16.5t-70 -38t-61.5 -50.5t-51 -55t-40 -50t-27.5 -37l65 -2.5t90 0.5q29 -1 70 4.5t81.5 16t75.5 26t52 36.5zM529 870q4 1 20 -27t35 -79.5 t36.5 -122.5t25 -155.5t-0.5 -179.5t-39 -193q-30 -27 -87 -48t-132.5 -35.5t-165.5 -22t-186 -7.5h-35q-27 0 -50 11q-20 9 -37 30t-19 61q2 39 18.5 60t36.5 31q23 11 51 13h31q112 0 205 6.5t160.5 15.5t106.5 19t43 17q4 18 -3 51.5t-20.5 74t-31.5 84t-35.5 82.5 t-32.5 69l-22 44q33 55 60 99q12 19 23 37t20.5 32t16 23t8.5 10z" />
<glyph unicode="&#x679;" horiz-adv-x="898" arabic-form="medial" d="M-105 103q0 23 9 42t23.5 32.5t33.5 21t39 7.5q122 1 216 12q36 4 76.5 11.5t70.5 18t52 25t30 33.5q2 34 -5.5 79t-16.5 87q-11 48 -25 99q35 37 63 66q24 25 45 44.5t25 16.5l3.5 -17.5t8.5 -46.5t10.5 -67.5t10 -80.5t7 -85.5t1.5 -82.5q28 -29 71 -53 q37 -20 99.5 -38t156.5 -21h9v-206h-9q-78 0 -141.5 13t-110.5 35.5t-83 52t-59 62.5q-21 -32 -71.5 -61.5t-118.5 -52t-139 -36t-133 -13.5h-43q-20 0 -39 7t-33.5 20.5t-23.5 32.5t-9 43zM30 921q2 5 11 3q17 -3 37.5 -6l41 -6t39.5 -5t33 -2l35 45q8 14 12.5 35t6.5 41 q3 23 3 47q-1 55 -4.5 118.5t-8.5 120.5t-10 99t-8 53q5 5 17.5 16.5t26 23.5t24.5 20.5t13 8.5t2.5 -3t1.5 -14q1 -12 2.5 -52.5t3.5 -92t3 -105t0 -90.5q0 -9 -1 -27t-4.5 -40.5t-10 -46.5t-16.5 -43q29 37 67 78t79.5 75.5t83 56.5t77.5 22q41 0 69 -13.5t44.5 -34.5 t24.5 -46.5t10.5 -50.5t0.5 -47t-5 -34q-10 -26 -21 -51q-9 -21 -18.5 -44t-17.5 -40q-12 -11 -36.5 -25.5t-60.5 -27t-81.5 -22t-99.5 -10.5q-24 0 -60 0.5t-75 2t-75 4t-60 6.5q-15 9 -32 24t-31.5 31t-24 29.5t-8.5 18.5zM675 983q3 10 5.5 26t2 35t-5 38t-17.5 34.5 t-35 24.5t-56 8q-41 -1 -78 -16.5t-70 -38t-61.5 -50.5t-51 -55t-40 -50t-27.5 -37l65 -2.5t90 0.5q29 -1 70 4.5t81.5 16t75.5 26t52 36.5z" />
<glyph unicode="&#x6a4;" horiz-adv-x="1970" arabic-form="isolated" d="M976 -28q-65 0 -145 2.5t-163.5 13t-165.5 32t-151 60t-120 97t-73 142t-9 195.5t72 258l73 -37q-40 -106 -41.5 -185.5t25 -138.5t75.5 -98.5t110.5 -64.5t130.5 -38.5t135 -19t124.5 -6t98.5 -0.5q47 0 108.5 1.5t130.5 5t141.5 10.5t140.5 18t127.5 27t103 37.5t67 50 t19.5 64.5q-29 -8 -66 -13q-32 -5 -76 -6.5t-100 3.5q-158 15 -236.5 84t-61.5 188q1 13 6.5 46.5t19 76t35.5 89t55.5 85.5t80 64t108.5 26q54 0 98.5 -23.5t80 -63t62 -91.5t46 -108t32 -113t18.5 -106q15 -117 -11 -204.5t-84.5 -150.5t-145.5 -103.5t-193.5 -64 t-229 -32.5t-252.5 -9zM1776 571q-4 12 -11.5 38t-21 58.5t-32.5 66.5t-45 62.5t-59.5 46.5t-75.5 18q-44 0 -76 -13.5t-55 -34.5t-37.5 -46t-23 -48.5t-12 -42t-3.5 -25.5q9 -17 32.5 -31.5t56.5 -25.5t73 -19t81 -11q58 -5 98 -4t65 3q29 3 46 8zM1352 1232l-148 149 l147 149l150 -150zM1704 1232l-150 149l149 149l148 -150zM1667 1668l-141 -141l-143 142l141 141z" />
<glyph unicode="&#x6a4;" horiz-adv-x="2052" arabic-form="final" d="M979 -30q-65 0 -145 2.5t-163.5 13t-166 32t-151.5 60t-120.5 97t-73 142t-9 195.5t71.5 258l73 -37q-40 -106 -41 -185.5t25.5 -138.5t76 -98.5t111.5 -64.5t131.5 -38.5t136 -19t125 -6t98.5 -0.5q95 2 183 6q37 1 77 3t77.5 4t71 4.5t58.5 5.5l1 1q-12 15 -26 33.5 t-27.5 44t-25.5 59.5t-19 81q2 39 12.5 87.5t28 98.5t43 97t59 84t75 59.5t90.5 23.5q51 1 90.5 -19.5t69.5 -54t50.5 -78t33.5 -92t20 -94.5t10 -87q-9 -51 -16 -83t-16 -56t-21.5 -45.5t-31.5 -52.5q13 -2 43.5 -3.5t65 -2t65.5 -0.5h44h14v-206h-24q-17 -1 -49.5 1 t-73.5 5.5t-85.5 8.5t-85 11.5t-72 13.5t-46.5 15q-24 -13 -72.5 -25t-109 -21t-127.5 -16.5t-130.5 -12.5t-117 -7.5t-85.5 -2.5zM1636 267q16 6 45 21.5t58 40t52.5 56.5t29.5 70q-10 31 -30.5 69t-49.5 71t-65 55t-76 22q-39 0 -74 -19.5t-61.5 -52t-42 -74t-15.5 -85.5 q6 -23 28 -49.5t53.5 -50.5t70 -44t77.5 -30zM1434 1025l-148 149l147 149l150 -150zM1786 1025l-150 149l149 149l148 -150zM1749 1461l-141 -141l-143 142l141 141z" />
<glyph unicode="&#x6a4;" horiz-adv-x="892" arabic-form="initial" d="M70 206q62 0 133.5 1t141 6t133.5 17t111.5 33t73 54t20.5 81q-29 -8 -66 -13q-32 -5 -76 -6.5t-100 3.5q-158 15 -236.5 84t-61.5 188q1 13 6.5 46.5t19 76t35.5 89t55.5 85.5t80 64t108.5 26q54 0 98.5 -23.5t80 -63t62 -91.5t46 -108t32 -113t18.5 -106 q15 -117 4 -202.5t-47 -145t-96.5 -96.5t-144.5 -57.5t-191.5 -27.5t-237.5 -7h-72q-16 0 -34.5 6t-34 19t-25.5 32t-10 45q1 27 10.5 46.5t24.5 32.5t33.5 19t35.5 6h70zM669 571q-4 12 -11.5 38t-21 58.5t-32.5 66.5t-45 62.5t-59.5 46.5t-75.5 18q-44 0 -76 -13.5 t-55 -34.5t-37.5 -46t-23 -48.5t-12 -42t-3.5 -25.5q9 -17 32.5 -31.5t56.5 -25.5t73 -19t81 -11q58 -5 98 -4t65 3q29 3 46 8zM231 1224l-148 149l147 149l150 -150zM583 1224l-150 149l149 149l148 -150zM546 1660l-141 -141l-143 142l141 141z" />
<glyph unicode="&#x6a4;" horiz-adv-x="927" arabic-form="medial" d="M11 206h98h37.5h51t51 0.5t38.5 0.5q-12 15 -25.5 32t-27 42t-26.5 59t-25 84q0 39 9 88t26.5 99t43.5 97.5t61 84.5t78 59t94 22q48 0 86 -20.5t67.5 -54.5t51 -78t36 -91t22.5 -94t10 -87q-9 -51 -17 -83t-18.5 -55.5t-24 -45t-32.5 -52.5q14 -3 40.5 -4.5t55 -2 t64.5 -0.5h49h64v-206h-73q-17 -1 -57 1.5t-77 6.5t-77 10t-76.5 13t-65.5 14.5t-43 15.5q-11 -8 -37 -15.5t-61 -14t-74.5 -12.5t-76.5 -10t-68.5 -6.5t-49.5 -2.5h-104h-7q-40 0 -72 26t-33 75q0 24 8.5 43.5t23.5 33t34 21t39 7.5h9zM675 456q-10 31 -30.5 68.5 t-49.5 70.5t-65 55t-76 22q-39 0 -74 -19.5t-61.5 -52t-42 -74t-15.5 -85.5q6 -23 28 -49.5t53.5 -50.5t70 -44t77.5 -30q16 6 45 21.5t58 40t52.5 56.5t29.5 71zM279 1060l-148 149l147 149l150 -150zM631 1060l-150 149l149 149l148 -150zM594 1496l-141 -141l-143 142 l141 141z" />
<glyph unicode="&#x686;" horiz-adv-x="1483" arabic-form="final" d="M901.933 150.915l134.893 -135.851l-133.981 -135.85l-136.715 136.762zM579.283 150.915l136.716 -135.851l-135.804 -135.85l-134.893 136.762zM612.096 -246.605l128.513 128.556l130.335 -129.468l-128.513 -128.556zM1504 206v-206h-80q-87 0 -146 16.5t-97.5 46 t-59.5 70t-31 90.5t-13.5 106.5t-5.5 118.5q-201 -23 -348 -76.5t-248.5 -124.5t-161.5 -153t-86 -161q18 -98 66 -169.5t117.5 -120.5t155 -78t178 -42.5t187 -13.5t181.5 9.5t162 25.5t128 34v-2q-11 -29 -22.5 -61.5t-21.5 -60.5q-11 -33 -22 -65q-74 -38 -165 -60.5 t-190 -28.5t-200.5 5.5t-196 41.5t-176.5 80t-142.5 120.5t-93.5 162.5t-30 208q0 45 13 106t47.5 127.5t95.5 134.5t157 127.5t231.5 104.5t320.5 67q-55 18 -119.5 39t-130 41.5t-126.5 39.5t-108.5 33.5t-77.5 23.5t-32 9q-5 0 -14 -2t-22.5 -10t-31 -23.5t-38.5 -42.5 q-15 -20 -29 -41t-31 -43l-64 39q39 67 70.5 123.5t63 97.5t67 64.5t83.5 24.5q46 1 103 -17t125.5 -47t148 -64.5t170.5 -70t194 -64.5t217 -47l-91 -186q-43 0 -84 -1.5t-80 -3.5q0 -69 18.5 -116.5t52 -77.5t80 -43.5t103.5 -13.5h80z" />
<glyph unicode="&#x686;" horiz-adv-x="1492" arabic-form="initial" d="M-104 103q2 38 18.5 59t35.5 31q22 11 50 13q43 -1 108 3.5t145.5 15.5t171 29t184 45t186 63t176.5 83l50 28q-55 18 -122.5 40t-137.5 44.5t-136.5 43.5t-119 37.5t-85.5 26.5t-35 10q-5 0 -14.5 -2t-23 -10t-31 -24t-38.5 -43q-15 -19 -29 -40t-30 -43l-61 51 q39 67 70 121.5t62 93t66 60t83 22.5q46 1 101 -16t121.5 -44t144.5 -60t168.5 -64t194 -56t221.5 -36l-94 -185q-62 -26 -145.5 -66t-183.5 -84.5t-214.5 -89t-238 -80t-253.5 -58t-261 -22.5q-27 1 -49 12q-19 10 -36 30.5t-19 60.5zM840 -217l148 -149l-147 -149 l-150 150zM486 -217l150 -149l-149 -149l-148 150zM522 -653l141 141l143 -142l-141 -141z" />
<glyph unicode="&#x686;" horiz-adv-x="1466" arabic-form="medial" d="M1475 206v-206h-80q-79 0 -139 12.5t-104.5 34t-75.5 49.5t-51 59q-6 17 -10 31t-7 26.5t-5 26t-4 30.5q-97 -44 -215.5 -92t-248.5 -87.5t-266.5 -64.5t-268.5 -25q-27 1 -49 12q-19 10 -36 31t-19 60q2 38 18.5 59t35.5 31q22 11 50 13q43 -1 106.5 3.5t142 16 t168.5 31.5t186.5 50t195.5 71t195 95q-55 18 -122.5 40.5t-137.5 45t-136.5 43.5t-119 37.5t-85.5 26.5t-35 10q-5 0 -14.5 -2t-23 -10t-31 -24t-38.5 -43q-15 -19 -29 -40.5t-30 -42.5l-66 44q39 67 70.5 122.5t63.5 95.5t68 62.5t84 23.5q45 1 100.5 -16t122 -44 t144.5 -60t168.5 -64t194 -56.5t221.5 -36.5l-94 -185l-166 -83q5 -32 23 -52t44 -32.5t57 -17.5t61.5 -7t58.5 -2h48h80zM832 -236l148 -149l-147 -149l-150 150zM478 -236l150 -149l-149 -149l-148 150zM514 -672l141 141l143 -142l-141 -141z" />
<glyph unicode="&#x688;" horiz-adv-x="1078" arabic-form="final" d="M1090 206v-206h-19q-44 1 -81.5 15t-69 35t-56 48t-40.5 54q-10 -14 -30.5 -41t-58 -54t-94.5 -47t-138 -20q-71 0 -131.5 8t-105 18t-70.5 20t-28 15q-9 17 -16 42.5t-12 53.5t-7.5 56t-2.5 48.5t3.5 31.5t10.5 6q28 -21 59 -37t71 -27t91 -17t120 -6q45 0 87.5 2 t80 11.5t68 29.5t50.5 56q-32 73 -58 137.5t-51.5 129.5t-53 136.5t-63.5 160.5q33 57 61 102q12 19 23.5 37t21.5 32.5t17 22.5t10 8q3 -1 15.5 -49t34 -129t52.5 -186.5t72 -221.5q19 -47 42 -96t50 -88.5t59.5 -65t72.5 -25.5h14zM233 1362q2 5 11 3q17 -3 37.5 -6l41 -6 t39.5 -5t33 -2l35 45q8 14 12.5 35t6.5 41q3 23 3 47q-1 55 -4.5 118.5t-8.5 120.5t-10 99t-8 53q5 5 17.5 16.5t26 23.5t24.5 20.5t13 8.5t2.5 -3t1.5 -14q1 -12 2.5 -52.5t3.5 -92t3 -105t0 -90.5q0 -9 -1 -27t-4.5 -40.5t-10 -46.5t-16.5 -43q29 37 67 78t79.5 75.5 t83 56.5t77.5 22q41 0 69 -13.5t44.5 -34.5t24.5 -46.5t10.5 -50.5t0.5 -47t-5 -34q-10 -26 -21 -51q-9 -21 -18.5 -44t-17.5 -40q-12 -11 -36.5 -25.5t-60.5 -27t-81.5 -22t-99.5 -10.5q-24 0 -60 0.5t-75 2t-75 4t-60 6.5q-15 9 -32 24t-31.5 31t-24 29.5t-8.5 18.5z M878 1424q3 10 5.5 26t2 35t-5 38t-17.5 34.5t-35 24.5t-56 8q-41 -1 -78 -16.5t-70 -38t-61.5 -50.5t-51 -55t-40 -50t-27.5 -37l65 -2.5t90 0.5q29 -1 70 4.5t81.5 16t75.5 26t52 36.5z" />
<glyph unicode="&#x698;" horiz-adv-x="788" arabic-form="final" d="M800 206v-206h-9q-16 0 -35.5 3.5t-40 11.5t-40.5 20.5t-36 31.5q9 -84 -7 -159t-49 -139.5t-78.5 -119t-96 -98t-101 -76t-92.5 -53t-71.5 -29.5t-38.5 -5q-22 9 -59 28.5t-73 39.5q-42 23 -89 50q-11 10 -6.5 14t7.5 5q138 42 258 97.5t208.5 125t139 153t50.5 182.5 q-21 46 -38.5 82t-36 74t-40 83.5t-49.5 111.5q5 9 14.5 26.5t22 38.5t26.5 43t26 40t21.5 29.5t13.5 11.5q1 0 4 -3q14 -31 34 -73.5t43.5 -88.5t50 -91t53.5 -81t54.5 -58t53.5 -22h6zM273 793l-148 149l147 149l150 -150zM625 793l-150 149l149 149l148 -150zM588 1229 l-141 -141l-143 142l141 141z" />
<glyph unicode="&#x691;" horiz-adv-x="788" arabic-form="final" d="M800 206v-206h-9q-16 0 -35.5 3.5t-40 11.5t-40.5 20.5t-36 31.5q9 -84 -7 -159t-49 -139.5t-78.5 -119t-96 -98t-101 -76t-92.5 -53t-71.5 -29.5t-38.5 -5q-22 9 -59 28.5t-73 39.5q-42 23 -89 50q-11 10 -6.5 14t7.5 5q138 42 258 97.5t208.5 125t139 153t50.5 182.5 q-21 46 -38.5 82t-36 74t-40 83.5t-49.5 111.5q5 9 14.5 26.5t22 38.5t26.5 43t26 40t21.5 29.5t13.5 11.5q1 0 4 -3q14 -31 34 -73.5t43.5 -88.5t50 -91t53.5 -81t54.5 -58t53.5 -22h6zM96 998q2 5 11 3q17 -3 37.5 -6l41 -6t39.5 -5t33 -2l35 45q8 14 12.5 35t6.5 41 q3 23 3 47q-1 55 -4.5 118.5t-8.5 120.5t-10 99t-8 53q5 5 17.5 16.5t26 23.5t24.5 20.5t13 8.5t2.5 -3t1.5 -14q1 -12 2.5 -52.5t3.5 -92t3 -105t0 -90.5q0 -9 -1 -27t-4.5 -40.5t-10 -46.5t-16.5 -43q29 37 67 78t79.5 75.5t83 56.5t77.5 22q41 0 69 -13.5t44.5 -34.5 t24.5 -46.5t10.5 -50.5t0.5 -47t-5 -34q-10 -26 -21 -51q-9 -21 -18.5 -44t-17.5 -40q-12 -11 -36.5 -25.5t-60.5 -27t-81.5 -22t-99.5 -10.5q-24 0 -60 0.5t-75 2t-75 4t-60 6.5q-15 9 -32 24t-31.5 31t-24 29.5t-8.5 18.5zM741 1060q3 10 5.5 26t2 35t-5 38t-17.5 34.5 t-35 24.5t-56 8q-41 -1 -78 -16.5t-70 -38t-61.5 -50.5t-51 -55t-40 -50t-27.5 -37l65 -2.5t90 0.5q29 -1 70 4.5t81.5 16t75.5 26t52 36.5z" />
<glyph unicode="&#x6a9;" horiz-adv-x="2171" arabic-form="final" d="M2181 207v-207h-17q-51 -4 -101 12t-97 44t-90 65t-81 76t-69.5 76t-55.5 66q-2 -17 -5 -37t-7.5 -41.5t-9 -42.5t-8.5 -39q-53 -53 -133.5 -90.5t-179.5 -60.5t-211.5 -33.5t-227.5 -9.5q-69 1 -145.5 7t-153.5 20.5t-149 40.5t-130.5 67t-100 99.5t-57 139.5t-0.5 186 t69 239l73 -36q-36 -98 -41 -173.5t14 -132.5t59 -97.5t92.5 -67.5t114 -43t124.5 -24.5t124 -11t113 -2.5q108 0 220 11t209.5 34.5t170.5 60t103 86.5q-32 110 -86 200.5t-124.5 170t-154 151t-172.5 143.5l47 192q271 117 485 209q61 26 120.5 51.5t113.5 48t100 41.5 t80 32.5t53 20t20 5.5q1 -6 -4 -35.5t-12 -62.5q-8 -39 -19 -86l-758 -334l92 -98t90 -101.5t85 -110t77 -122.5q78 -141 162 -236t158.5 -153t131.5 -82.5t82 -24.5h17z" />
<glyph unicode="&#x6a9;" horiz-adv-x="1089" arabic-form="initial" d="M0 0q-12 1 -29.5 6t-34 16.5t-28.5 30.5t-12 48q1 31 12 51.5t26.5 32t33.5 16.5t32 5q107 2 205.5 12.5t179.5 33.5t140.5 60.5t89.5 93.5q-36 100 -93.5 187t-129.5 166t-155.5 151.5t-172.5 144.5l46 184q273 120 489 213q92 40 180 77.5t157 66.5t111.5 45.5 t43.5 14.5l-35 -184l-767 -339q52 -54 108 -115t108 -128.5t95.5 -143.5t70 -160.5t32 -179.5t-18.5 -200q-53 -53 -124 -92t-157.5 -64.5t-188 -37.5t-214.5 -12z" />
<glyph unicode="&#x6a9;" horiz-adv-x="1171" arabic-form="medial" d="M1187 207v-207h-17q-51 -4 -101 12t-97 44t-90 65t-81 76t-69.5 76t-55.5 66q-2 -17 -5 -37t-7.5 -41.5t-9 -42.5t-8.5 -39q-53 -53 -117 -87.5t-143 -54.5t-175 -28t-211 -9q-11 0 -28.5 5t-34 16.5t-29 31t-12.5 48.5q1 31 12 51.5t27 32.5t33.5 16.5t31.5 4.5 q108 0 204.5 9.5t175 31t136 56.5t87.5 85q-32 110 -86 200.5t-124.5 170t-154 151t-172.5 143.5l47 192q271 117 485 209q61 26 120.5 51.5t113.5 48t100 41.5t80 32.5t53 20t20 5.5q1 -6 -4 -35.5t-12 -62.5q-8 -39 -19 -86l-758 -334l92 -98t90 -101.5t85 -110t77 -122.5 q78 -141 162 -236t158.5 -153t131.5 -82.5t82 -24.5h17z" />
<glyph unicode="&#x6af;" horiz-adv-x="2171" arabic-form="final" d="M2181 207v-207h-17q-51 -4 -101 12t-97 44t-90 65t-81 76t-69.5 76t-55.5 66q-2 -17 -5 -37t-7.5 -41.5t-9 -42.5t-8.5 -39q-53 -53 -133.5 -90.5t-179.5 -60.5t-211.5 -33.5t-227.5 -9.5q-69 1 -145.5 7t-153.5 20.5t-149 40.5t-130.5 67t-100 99.5t-57 139.5t-0.5 186 t69 239l73 -36q-36 -98 -41 -173.5t14 -132.5t59 -97.5t92.5 -67.5t114 -43t124.5 -24.5t124 -11t113 -2.5q108 0 220 11t209.5 34.5t170.5 60t103 86.5q-32 110 -86 200.5t-124.5 170t-154 151t-172.5 143.5l47 192q271 117 485 209q61 26 120.5 51.5t113.5 48t100 41.5 t80 32.5t53 20t20 5.5q1 -6 -4 -35.5t-12 -62.5q-8 -39 -19 -86l-758 -334l92 -98t90 -101.5t85 -110t77 -122.5q78 -141 162 -236t158.5 -153t131.5 -82.5t82 -24.5h17zM1999 1812l-852 -369l43 152l837 362z" />
<glyph unicode="&#x6af;" horiz-adv-x="1083" arabic-form="initial" d="M0 0q-12 1 -29.5 6t-34 16.5t-28.5 30.5t-12 48q1 31 12 51.5t26.5 32t33.5 16.5t32 5q107 2 205.5 12.5t179.5 33.5t140.5 60.5t89.5 93.5q-36 100 -93.5 187t-129.5 166t-155.5 151.5t-172.5 144.5l46 184q273 120 489 213q92 40 180 77.5t157 66.5t111.5 45.5 t43.5 14.5l-35 -184l-767 -339q52 -54 108 -115t108 -128.5t95.5 -143.5t70 -160.5t32 -179.5t-18.5 -200q-53 -53 -124 -92t-157.5 -64.5t-188 -37.5t-214.5 -12zM989 1802l-852 -369l43 152l837 362z" />
<glyph unicode="&#x6af;" horiz-adv-x="1176" arabic-form="medial" d="M1187 207v-207h-17q-51 -4 -101 12t-97 44t-90 65t-81 76t-69.5 76t-55.5 66q-2 -17 -5 -37t-7.5 -41.5t-9 -42.5t-8.5 -39q-53 -53 -117 -87.5t-143 -54.5t-175 -28t-211 -9q-11 0 -28.5 5t-34 16.5t-29 31t-12.5 48.5q1 31 12 51.5t27 32.5t33.5 16.5t31.5 4.5 q108 0 204.5 9.5t175 31t136 56.5t87.5 85q-32 110 -86 200.5t-124.5 170t-154 151t-172.5 143.5l47 192q271 117 485 209q61 26 120.5 51.5t113.5 48t100 41.5t80 32.5t53 20t20 5.5q1 -6 -4 -35.5t-12 -62.5q-8 -39 -19 -86l-758 -334l92 -98t90 -101.5t85 -110t77 -122.5 q78 -141 162 -236t158.5 -153t131.5 -82.5t82 -24.5h17zM1000 1803l-852 -369l43 152l837 362z" />
<glyph unicode="&#x6ba;" horiz-adv-x="1629" arabic-form="final" d="M1238 621q3 0 4 -1v-1v2q12 -19 24 -49t28.5 -68.5t38.5 -84.5t54 -97q33 -54 90.5 -79t143.5 -37h16v-206h-16q-97 13 -166.5 38t-93.5 53q1 -15 1.5 -30.5t0.5 -30.5q0 -150 -43.5 -270t-128 -204t-210.5 -129t-292 -45q-119 0 -218 29t-170.5 88.5t-112.5 150 t-45 213.5t31.5 279t117.5 347l69 -38q-34 -108 -63 -211.5t-41 -195.5t-1 -170t57.5 -136t135 -93t231.5 -40q152 1 256 30t171 79t102 117t48 145q-17 55 -35.5 118.5t-37.5 125t-38 117t-35 94.5q30 52 56 93q11 18 22 35t20.5 30.5t17 22t11.5 9.5z" />
<glyph unicode="&#x6c0;" horiz-adv-x="1051" arabic-form="final" d="M1059 206v-206h-39q-84 4 -139.5 32.5t-90 69.5t-52.5 90.5t-26 95.5l-133 -137q-6 -2 -45.5 0.5t-95 10t-119.5 20.5t-120 33q-12 16 -22.5 45t-18.5 64t-13 73t-5.5 72.5t3.5 61.5t15 40q18 21 50 47.5t72.5 55.5t86 59t89.5 58.5t84 54t70 45.5q-3 19 -5.5 41.5 t-5.5 48.5l164 145q24 -215 43 -389q8 -74 16.5 -147t16 -133t13 -101.5t8.5 -53.5q4 -18 16 -35.5t33.5 -31t54 -21.5t78.5 -8h17zM217 493q1 -42 39 -69.5t104 -45t155 -27t191 -14.5l-74 413q-62 -31 -128 -63t-124 -64.5t-101.5 -65t-61.5 -64.5zM312 1168l116 66 q-8 4 -23.5 16.5t-32 31.5t-29.5 43.5t-15 54.5q-1 19 7.5 43t23.5 49t35.5 49t43.5 42.5t47.5 30t48.5 11.5q50 0 93.5 -23.5t78.5 -87.5l-25 -13q-9 4 -42 15.5t-89 11.5q-29 0 -56 -13.5t-48 -31t-33.5 -34.5t-12.5 -24q0 -8 9.5 -25.5t31 -36.5t55 -34.5t81.5 -19.5 q30 4 52.5 8t42 8t36.5 8.5t35 9.5q1 1 -3.5 -14t-9.5 -33q-6 -21 -15 -49q-8 -2 -18.5 -3.5t-25.5 -4.5t-36.5 -8t-51.5 -12q-43 -9 -77 -19t-67 -23.5t-69.5 -31.5t-84.5 -43z" />
<glyph unicode="&#x6c1;" horiz-adv-x="892" arabic-form="isolated" d="M813 353q-21 -183 -115.5 -275.5t-257.5 -92.5q-70 0 -129.5 23.5t-100 69t-58.5 112.5t-5 155q7 45 23 98t38 107t47 106.5t49.5 95.5t46 74.5t36.5 43.5q2 2 35 -12.5t80 -44.5t101.5 -75t101 -103t77.5 -129t31 -153zM447 166q37 0 84 8.5t91 25.5t80 42t52 58 q-1 37 -24.5 75t-59.5 74.5t-80.5 69t-89 58.5t-84 43.5t-65.5 24.5q-66 -105 -88 -193t-7 -151.5t64.5 -99t126.5 -35.5z" />
<glyph unicode="&#x6c1;" horiz-adv-x="664" arabic-form="initial" d="M425 -536q-18 7 -38.5 18t-39 23.5t-33 27t-20.5 28.5q1 90 43 187t115 193l74 -45q-19 -26 -38.5 -54t-35 -56t-25.5 -54.5t-10 -48.5q23 -29 58.5 -47.5t85.5 -34.5q-12 -29 -31.5 -53.5t-40 -43t-38 -29t-26.5 -11.5zM529 870q4 1 20 -27t35 -79.5t36.5 -122.5 t25 -155.5t-0.5 -179.5t-39 -193q-30 -27 -87 -48t-132.5 -35.5t-165.5 -22t-186 -7.5h-35q-27 0 -50 11q-20 9 -37 30t-19 61q2 39 18.5 60t36.5 31q23 11 51 13h31q112 0 205 6.5t160.5 15.5t106.5 19t43 17q4 18 -3 51.5t-20.5 74t-31.5 84t-35.5 82.5t-32.5 69l-22 44 q33 55 60 99q12 19 23 37t20.5 32t16 23t8.5 10z" />
<glyph unicode="&#x6c1;" horiz-adv-x="1116" arabic-form="medial" d="M711 -455l-194 -115q-38 29 -82.5 78t-87 122t-78 172.5t-56.5 230.5q-16 -8 -32 -15t-38 -12q-11 -3 -32 -4.5t-43.5 -2t-42 0t-26.5 0.5q-12 -1 -28 4.5t-30 17.5t-24 30.5t-10 44.5q0 29 9.5 49.5t23.5 34t30 19.5t29 6h168q9 0 17 1t16 5.5t16 13.5t17 26 q19 31 37 56t50 58l91 -71l-37 -141q6 -61 21 -121.5t39.5 -119t60.5 -114t84 -107.5q3 21 9 49.5t13.5 60t16 63t17.5 59t17.5 47t15.5 27.5q25 26 55.5 55t58.5 52q27 22 69 41t88.5 32t94 20.5t86.5 7.5q14 0 20 -12t6 -25v-142q0 -27 -26 -27h-68.5h-75t-67.5 -0.5 t-46 -2.5q-30 -4 -55 -13t-45 -17zM939 -625q-18 7 -38 18t-38.5 23.5t-33 27t-20.5 28.5q1 90 43 187t115 193l73 -45q-19 -26 -38 -54t-34.5 -56t-25.5 -54.5t-10 -48.5q23 -29 58.5 -47.5t85.5 -34.5q-12 -29 -31.5 -53.5t-40 -43t-38.5 -29t-27 -11.5z" />
<glyph unicode="&#x6be;" horiz-adv-x="1018" arabic-form="final" d="M316 211q8 123 38.5 229.5t70.5 190t82.5 140t75.5 79.5q36 -12 74.5 -56t69.5 -106t48.5 -134t10.5 -141q-29 -88 -60.5 -156.5t-75 -117.5t-102 -78.5t-140.5 -39.5q11 -48 20.5 -82.5t20 -61.5t23.5 -49t29.5 -45t39 -50l52.5 -63q1 12 0.5 21t-2 18.5t-2.5 21 t-2 27.5q0 48 8 106.5t43 120.5q19 32 44 62.5t52.5 56t56 45.5t55.5 31q13 6 36.5 10.5t48 7.5t47.5 5t37 3h8v-206h-8q-17 0 -42 -2t-51.5 -5t-50.5 -7t-38 -10q-24 -9 -47 -20.5t-45.5 -29.5t-42.5 -45t-38 -66q0 -34 4 -68t20 -66.5t47 -61.5t85 -54l-89 -166 q-82 51 -142 99t-102.5 96t-71 96t-47 99.5t-30.5 106t-22 115.5q-28 0 -60 -8q-27 -7 -62 -21.5t-73 -40.5l-47 128q29 33 62.5 59t66.5 44t63.5 28t53.5 11zM574 659q-19 -7 -47.5 -44.5t-55.5 -97.5t-47.5 -137t-21.5 -163q47 6 96 16t91 28.5t72.5 46.5t41.5 69 q-3 24 -11 62t-23 78.5t-38.5 79t-56.5 62.5z" />
<glyph unicode="&#x6be;" horiz-adv-x="1346" arabic-form="initial" d="M-104 102q0 24 8.5 43t23 32.5t33.5 21t39 7.5h62q57 0 103 4.5t79 9.5q38 6 68 15q-31 31 -51 76.5t-28.5 96.5t-5 103.5t19.5 96.5q13 36 32 64t38.5 49t37 35.5t29.5 24.5l-84 36l100 202q4 -1 40.5 -15.5t93.5 -40.5t129 -62t147.5 -80.5t149 -95.5t133 -107 t100 -116t49.5 -121q-8 -42 -16.5 -86.5t-20 -87.5t-26 -83.5t-33.5 -75.5q-47 -27 -105 -35.5t-118 -4.5t-118.5 16.5t-107 26.5t-83 27t-45.5 17q-20 -15 -54 -27.5t-74.5 -23t-85.5 -19t-88 -14t-81.5 -8.5t-65.5 -3h-120q-21 0 -40 7.5t-33.5 21t-22.5 32t-8 41.5z M597 714q-45 3 -90.5 -9.5t-84.5 -37.5t-68 -60t-41 -78q11 -47 34.5 -82.5t57 -62t75.5 -45.5t90 -32q5 1 20 10.5t31.5 23t32 28t21.5 26.5q19 33 17.5 76.5t-15.5 88t-36 85.5t-44 69zM1146 231q11 43 -4.5 85t-47 80.5t-73 72.5t-82.5 61.5t-77 47t-55 29.5 q9 -27 13.5 -58t4 -63t-6 -63.5t-16.5 -58.5q-4 -12 -15.5 -29.5t-25.5 -34.5q-16 -19 -35 -39q22 -8 57.5 -18t76.5 -19t84.5 -15t82.5 -7t70.5 5.5t48.5 23.5z" />
<glyph unicode="&#x6be;" horiz-adv-x="985" arabic-form="medial" d="M0 206q15 0 38.5 1t50 2.5t53.5 3.5t50 3q5 82 22 160t40.5 148.5t52 131.5t58 109.5t56.5 82t49 49.5q24 -8 49.5 -34.5t50 -65t46 -86.5t37 -99t22 -102.5t2.5 -97.5q-29 -88 -60.5 -156.5t-75 -117.5t-102 -78.5t-139.5 -39.5q16 -71 48.5 -134.5t70.5 -113.5 t76.5 -84.5t67.5 -47.5q-3 28 -8.5 66t-4.5 83t13.5 95t44.5 102q20 32 44.5 62.5t51.5 56.5t55.5 45.5t55.5 30.5q27 12 63.5 17.5t63.5 7.5h55v-206h-55q-62 0 -112 -20.5t-89 -52t-66.5 -69t-45.5 -72.5q0 -35 4.5 -69.5t20 -66.5t46.5 -61.5t85 -54.5l-89 -165 q-107 41 -194 107t-152 149.5t-106.5 182t-57.5 204.5q-30 -3 -62 -6q-27 -2 -60 -4t-64 -2q-20 0 -38.5 6t-33 19t-23.5 32t-10 45q0 22 9 41.5t24 33t34 21.5t38 8zM465 659q-19 -7 -47.5 -45t-55.5 -97.5t-47.5 -136.5t-21.5 -163q47 6 96 16t91 28.5t72.5 46.5t41.5 69 q-3 24 -11 62t-23 78.5t-38.5 79t-56.5 62.5z" />
<glyph unicode="&#x6d2;" horiz-adv-x="1652" arabic-form="final" d="M218 -237q60 -18 137.5 -31t162 -21.5t171.5 -13t165 -4.5q81 0 177 3.5t194 10.5t191 17.5t169 24.5q-8 -17 -35 -51t-60.5 -69.5t-66.5 -65.5t-54 -39q-26 -4 -76.5 -6.5t-113 -4.5t-130 -3t-127.5 -1t-127.5 1.5t-132 5t-121 8.5t-93.5 11q-25 4 -60.5 11.5t-74 16.5 t-76.5 19.5t-68.5 20t-49.5 17.5t-19 12q0 5 4.5 22.5t11 41t14 50t14.5 49.5t12.5 40t7.5 21q90 86 198.5 155t239.5 111q43 14 120 25.5t172 21t202 16.5t211.5 11.5t198.5 7t164 2.5v-206q-39 0 -99 -0.5t-131 -2t-146 -3t-144 -4t-126 -6t-91 -7.5q-50 -6 -110.5 -13.5 t-120.5 -17t-114 -21t-91 -24.5q-149 -53 -279 -138z" />
<glyph unicode="&#x6d3;" horiz-adv-x="1614" arabic-form="final" d="M179 -237q60 -18 137.5 -31t162 -21.5t171.5 -13t165 -4.5q81 0 177 3.5t194 10.5t191 17.5t169 24.5q-8 -17 -35 -51t-60.5 -69.5t-66.5 -65.5t-54 -39q-26 -4 -76.5 -6.5t-113 -4.5t-130 -3t-127.5 -1t-127.5 1.5t-132 5t-121 8.5t-93.5 11q-25 4 -60.5 11.5t-74 16.5 t-76.5 19.5t-68.5 20t-49.5 17.5t-19 12q0 5 4.5 22.5t11 41t14 50t14.5 49.5t12.5 40t7.5 21q90 86 198.5 155t239.5 111q43 14 120 25.5t172 21t202 16.5t211.5 11.5t198.5 7t164 2.5v-206q-39 0 -99 -0.5t-131 -2t-146 -3t-144 -4t-126 -6t-91 -7.5q-50 -6 -110.5 -13.5 t-120.5 -17t-114 -21t-91 -24.5q-149 -53 -279 -138zM267 296l116 66q-8 4 -23.5 16.5t-32 31.5t-29.5 43.5t-15 54.5q-1 19 7.5 43t23.5 49t35.5 49t43.5 42.5t47.5 30t48.5 11.5q50 0 93.5 -23.5t78.5 -87.5l-25 -13q-9 4 -42 15.5t-89 11.5q-29 0 -56 -13.5t-48 -31 t-33.5 -34.5t-12.5 -24q0 -8 9.5 -25.5t31 -36.5t55 -34.5t81.5 -19.5q30 4 52.5 8t42 8t36.5 8.5t35 9.5q1 1 -3.5 -14t-9.5 -33q-6 -21 -15 -49q-8 -2 -18.5 -3.5t-25.5 -4.5t-36.5 -8t-51.5 -12q-43 -9 -77 -19t-67 -23.5t-69.5 -31.5t-84.5 -43z" />
<glyph unicode="&#x649;" horiz-adv-x="618" arabic-form="initial" d="M422 879q4 1 20 -28.5t35 -82.5t36.5 -126.5t25 -160t-0.5 -182.5t-39 -194q-30 -27 -82 -46.5t-115 -32.5t-133 -19.5t-136 -6.5h-35q-27 0 -50 11q-20 9 -37 30t-19 61q2 39 18.5 60t36.5 31q23 11 51 13h31q32 0 74.5 2.5t87 6.5t88 9t78.5 10.5t57 11t25 10.5 q3 21 -4.5 56.5t-21 77.5t-31 87.5t-34.5 85.5t-32 70.5t-22 44.5q33 55 60 99q12 19 23 37t20.5 32t16 23t8.5 10z" />
<glyph unicode="&#x649;" horiz-adv-x="772" arabic-form="medial" d="M-105 103q0 23 9 42t23.5 32.5t33.5 21t39 7.5q82 1 166 12q36 4 71.5 11.5t65.5 18t52 25t30 33.5q2 34 -5.5 79t-16.5 87q-11 48 -25 99q35 37 63 66q24 25 45 44.5t25 16.5l3.5 -17.5t8.5 -46.5t10.5 -67.5t10 -80.5t7 -85.5t1.5 -82.5q28 -29 71 -53q37 -20 94.5 -38 t121.5 -21h9v-206h-9q-48 0 -106.5 13t-105.5 35.5t-83 52t-59 62.5q-21 -32 -71.5 -61.5t-113.5 -52t-129 -36t-98 -13.5h-33q-20 0 -39 7t-33.5 20.5t-23.5 32.5t-9 43z" />
<glyph unicode="&#x6cc;" horiz-adv-x="1598" arabic-form="final" d="M1606 0h-68.5t-77.5 2.5t-85 9.5t-90 21q84 -42 127 -75t57 -52l-12 -168q-15 -43 -66.5 -98.5t-133 -106t-191 -88t-240.5 -44.5q-111 -6 -217 6t-194 50t-153.5 106.5t-95.5 175t-19.5 255t73.5 347.5l15.5 46.5t21.5 61t24.5 64t23.5 55.5l69 -36q-12 -37 -29 -88.5 t-34 -108.5q-13 -52 -24 -112.5t-14.5 -124.5t2.5 -127.5t28 -121t61.5 -105t102 -80t151 -46.5t208.5 -3q115 9 213 29.5t171.5 47.5t117.5 58.5t52 62.5q-17 15 -65 46t-116 68.5t-149 76.5t-162 72q-3 0 2.5 12.5t15 31.5t21 40.5t22.5 40.5t19.5 31.5t10.5 12.5 q105 -14 189.5 -22t158.5 -11.5t141.5 -4.5t137.5 -1v-206z" />
<glyph unicode="&#x6cc;" horiz-adv-x="761" arabic-form="initial" d="M529 870q4 1 20 -27t35 -79.5t36.5 -122.5t25 -155.5t-0.5 -179.5t-39 -193q-30 -27 -87 -48t-132.5 -35.5t-165.5 -22t-186 -7.5h-35q-27 0 -50 11q-20 9 -37 30t-19 61q2 39 18.5 60t36.5 31q23 11 51 13h31q112 0 205 6.5t160.5 15.5t106.5 19t43 17q4 18 -3 51.5 t-20.5 74t-31.5 84t-35.5 82.5t-32.5 69l-22 44q33 55 60 99q12 19 23 37t20.5 32t16 23t8.5 10zM167 -526l-148 149l147 149l150 -150zM541 -527l-150 149l149 149l148 -150z" />
<glyph unicode="&#x6cc;" horiz-adv-x="900" arabic-form="medial" d="M-105 103q0 23 9 42t23.5 32.5t33.5 21t39 7.5q122 1 216 12q36 4 76.5 11.5t70.5 18t52 25t30 33.5q2 34 -5.5 79t-16.5 87q-11 48 -25 99q35 37 63 66q24 25 45 44.5t25 16.5l3.5 -17.5t8.5 -46.5t10.5 -67.5t10 -80.5t7 -85.5t1.5 -82.5q28 -29 71 -53 q37 -20 99.5 -38t156.5 -21h9v-206h-9q-78 0 -141.5 13t-110.5 35.5t-83 52t-59 62.5q-21 -32 -71.5 -61.5t-118.5 -52t-139 -36t-133 -13.5h-43q-20 0 -39 7t-33.5 20.5t-23.5 32.5t-9 43zM231 -534l-148 149l147 149l150 -150zM605 -535l-150 149l149 149l148 -150z" />
<glyph unicode="&#xfc5e;" arabic-form="isolated" d="M351 1413q3 0 12 -24t18.5 -58.5t16 -74t4.5 -69.5q-9 -27 -20 -51t-25.5 -42t-33 -29t-42.5 -14q-30 0 -56.5 11t-40.5 43q-9 -17 -20 -31t-27.5 -24t-39.5 -15.5t-55 -3.5q-39 5 -61.5 23t-32 43t-9 54.5t6 56.5t13.5 49.5t13 34.5l30 -13q0 -2 -1 -5q-2 -5 -3 -13 q-11 -55 1.5 -94t54.5 -47q28 3 46.5 19.5t30.5 40.5t19 53t13 57l37 4q3 -22 4.5 -43t-6.5 -55q7 -23 25 -38t47 -14q6 0 19.5 1t28.5 5.5t28 13t17 23.5q0 19 -8 43t-18.5 46.5t-20 39.5t-13.5 22l19 38q8 14 16 25.5t13 11.5zM298 1514l-18 3l-15 1q-26 -37 -62.5 -66 t-79.5 -49.5t-89.5 -31t-92.5 -10.5h-17h-8t-9 1l-2 6q15 39 21.5 72t6.5 56q0 53 -22 53q-14 0 -51 -13t-80 -36l-4 4l17 95q15 9 33.5 18t36.5 16.5t33 12.5t24 5q19 0 32 -9.5t20.5 -26t10.5 -38t3 -45.5q0 -21 -1.5 -42t-5.5 -40q20 -1 48 5t58.5 16.5t60.5 26t54 34.5 q-51 12 -83.5 26t-51.5 31.5t-26 37.5t-7 43q0 30 14 60t38 54.5t55 40t65 15.5q31 0 51.5 -15.5t33 -40.5t17.5 -55t5 -59q0 -41 -10 -75q11 -2 23 -2.5t25 -1.5zM93 1714q0 -8 5.5 -21.5t22 -28.5t48 -30.5t83.5 -27.5q3 7 4 14t1 15q0 26 -7.5 49t-20 40t-29 27t-34.5 10 q-30 0 -51.5 -15t-21.5 -32z" />
<glyph unicode="&#xfc5f;" arabic-form="isolated" d="M351 1413q3 0 12 -24t18.5 -58.5t16 -74t4.5 -69.5q-9 -27 -20 -51t-25.5 -42t-33 -29t-42.5 -14q-30 0 -56.5 11t-40.5 43q-9 -17 -20 -31t-27.5 -24t-39.5 -15.5t-55 -3.5q-39 5 -61.5 23t-32 43t-9 54.5t6 56.5t13.5 49.5t13 34.5l30 -13q0 -2 -1 -5q-2 -5 -3 -13 q-11 -55 1.5 -94t54.5 -47q28 3 46.5 19.5t30.5 40.5t19 53t13 57l37 4q3 -22 4.5 -43t-6.5 -55q7 -23 25 -38t47 -14q6 0 19.5 1t28.5 5.5t28 13t17 23.5q0 19 -8 43t-18.5 46.5t-20 39.5t-13.5 22l19 38q8 14 16 25.5t13 11.5zM408 655l-392 -161v102l392 155v-96z M408 895l-392 -161v103l392 154v-96z" />
<glyph unicode="&#xfc60;" arabic-form="isolated" d="M351 1413q3 0 12 -24t18.5 -58.5t16 -74t4.5 -69.5q-9 -27 -20 -51t-25.5 -42t-33 -29t-42.5 -14q-30 0 -56.5 11t-40.5 43q-9 -17 -20 -31t-27.5 -24t-39.5 -15.5t-55 -3.5q-39 5 -61.5 23t-32 43t-9 54.5t6 56.5t13.5 49.5t13 34.5l30 -13q0 -2 -1 -5q-2 -5 -3 -13 q-11 -55 1.5 -94t54.5 -47q28 3 46.5 19.5t30.5 40.5t19 53t13 57l37 4q3 -22 4.5 -43t-6.5 -55q7 -23 25 -38t47 -14q6 0 19.5 1t28.5 5.5t28 13t17 23.5q0 19 -8 43t-18.5 46.5t-20 39.5t-13.5 22l19 38q8 14 16 25.5t13 11.5zM342 1509l-392 -161v103l392 155v-97z" />
<glyph unicode="&#xfc61;" arabic-form="isolated" d="M351 1413q3 0 12 -24t18.5 -58.5t16 -74t4.5 -69.5q-9 -27 -20 -51t-25.5 -42t-33 -29t-42.5 -14q-30 0 -56.5 11t-40.5 43q-9 -17 -20 -31t-27.5 -24t-39.5 -15.5t-55 -3.5q-39 5 -61.5 23t-32 43t-9 54.5t6 56.5t13.5 49.5t13 34.5l30 -13q0 -2 -1 -5q-2 -5 -3 -13 q-11 -55 1.5 -94t54.5 -47q28 3 46.5 19.5t30.5 40.5t19 53t13 57l37 4q3 -22 4.5 -43t-6.5 -55q7 -23 25 -38t47 -14q6 0 19.5 1t28.5 5.5t28 13t17 23.5q0 19 -8 43t-18.5 46.5t-20 39.5t-13.5 22l19 38q8 14 16 25.5t13 11.5zM283 1509q-27 -35 -63.5 -62.5t-74 -48 t-73.5 -35t-61 -23.5q-7 0 -26.5 1.5t-41 4.5t-39.5 7t-22 10l-2 7q43 17 88.5 35t88.5 37.5t81 40t67 41.5q-78 15 -117 45t-39 88q0 37 16 69.5t41 56.5t56.5 38t61.5 14q19 0 38.5 -9.5t36 -31t27 -57t10.5 -86.5q0 -15 -2 -28t-6 -27q-5 -20 -12 -36t-15 -27 q-9 -13 -18 -24zM110 1701q0 -34 43.5 -58.5t118.5 -38.5q3 12 3 23q0 22 -7.5 45t-20 41.5t-29 30t-33.5 11.5q-15 0 -28.5 -5t-24 -12.5t-16.5 -17.5t-6 -19z" />
<glyph unicode="&#xfc62;" arabic-form="isolated" d="M351 1413q3 0 12 -24t18.5 -58.5t16 -74t4.5 -69.5q-9 -27 -20 -51t-25.5 -42t-33 -29t-42.5 -14q-30 0 -56.5 11t-40.5 43q-9 -17 -20 -31t-27.5 -24t-39.5 -15.5t-55 -3.5q-39 5 -61.5 23t-32 43t-9 54.5t6 56.5t13.5 49.5t13 34.5l30 -13q0 -2 -1 -5q-2 -5 -3 -13 q-11 -55 1.5 -94t54.5 -47q28 3 46.5 19.5t30.5 40.5t19 53t13 57l37 4q3 -22 4.5 -43t-6.5 -55q7 -23 25 -38t47 -14q6 0 19.5 1t28.5 5.5t28 13t17 23.5q0 19 -8 43t-18.5 46.5t-20 39.5t-13.5 22l19 38q8 14 16 25.5t13 11.5zM398 880l-392 -161v103l392 155v-97z" />
<glyph unicode="&#xfc63;" arabic-form="isolated" d="M351 1413q3 0 12 -24t18.5 -58.5t16 -74t4.5 -69.5q-9 -27 -20 -51t-25.5 -42t-33 -29t-42.5 -14q-30 0 -56.5 11t-40.5 43q-9 -17 -20 -31t-27.5 -24t-39.5 -15.5t-55 -3.5q-39 5 -61.5 23t-32 43t-9 54.5t6 56.5t13.5 49.5t13 34.5l30 -13q0 -2 -1 -5q-2 -5 -3 -13 q-11 -55 1.5 -94t54.5 -47q28 3 46.5 19.5t30.5 40.5t19 53t13 57l37 4q3 -22 4.5 -43t-6.5 -55q7 -23 25 -38t47 -14q6 0 19.5 1t28.5 5.5t28 13t17 23.5q0 19 -8 43t-18.5 46.5t-20 39.5t-13.5 22l19 38q8 14 16 25.5t13 11.5zM117 1365q-1 37 -3.5 81.5t-6 90.5t-7.5 91 t-7.5 82t-6.5 64t-4 37q7 4 23.5 13.5t34 19.5t32.5 17t18 7q1 0 3 -7q0 -3 1 -7q0 -12 -0.5 -39.5t-1 -64t-2 -78t-3.5 -81.5t-5 -76t-6 -60q-3 -13 -12.5 -29t-20 -29.5t-18.5 -23t-8 -8.5z" />
<glyph unicode="&#xfe70;" arabic-form="isolated" d="M344 1156l-392 -161v102l392 156v-97zM344 1396l-392 -161v103l392 154v-96z" />
<glyph unicode="&#xfe72;" arabic-form="isolated" d="M358 1128l-18 3l-15 1q-26 -37 -62.5 -66t-79.5 -49.5t-89.5 -31t-92.5 -10.5h-17h-8t-9 1l-2 6q15 39 21.5 72t6.5 56q0 53 -22 53q-14 0 -51 -13t-80 -36l-4 4l17 95q15 9 33.5 18t36.5 16.5t33 12.5t24 5q19 0 32 -9.5t20.5 -26t10.5 -38t3 -45.5q0 -21 -1.5 -42 t-5.5 -40q20 -1 48 5t58.5 16.5t60.5 26t54 34.5q-51 12 -83.5 26t-51.5 31.5t-26 37.5t-7 43q0 30 14 60t38 54.5t55 40t65 15.5q31 0 51.5 -15.5t33 -40.5t17.5 -55t5 -59q0 -41 -10 -75q11 -2 23 -2.5t25 -1.5zM153 1328q0 -8 5.5 -21.5t22 -28.5t48 -30.5t83.5 -27.5 q3 7 4 14t1 15q0 26 -7.5 49t-20 40t-29 27t-34.5 10q-30 0 -51.5 -15t-21.5 -32z" />
<glyph unicode="&#xfe74;" arabic-form="isolated" d="M351 -521l-392 -161v102l392 155v-96zM351 -281l-392 -161v103l392 154v-96z" />
<glyph unicode="&#xfe76;" arabic-form="isolated" d="M394 1188l-392 -161v103l392 155v-97z" />
<glyph unicode="&#xfe78;" arabic-form="isolated" d="M283 1143q-27 -35 -63.5 -62.5t-74 -48t-73.5 -35t-61 -23.5q-7 0 -26.5 1.5t-41 4.5t-39.5 7t-22 10l-2 7q43 17 88.5 35t88.5 37.5t81 40t67 41.5q-78 15 -117 45t-39 88q0 37 16 69.5t41 56.5t56.5 38t61.5 14q19 0 38.5 -9.5t36 -31t27 -57t10.5 -86.5q0 -15 -2 -28 t-6 -27q-5 -20 -12 -36t-15 -27q-9 -13 -18 -24zM110 1335q0 -34 43.5 -58.5t118.5 -38.5q3 12 3 23q0 22 -7.5 45t-20 41.5t-29 30t-33.5 11.5q-15 0 -28.5 -5t-24 -12.5t-16.5 -17.5t-6 -19z" />
<glyph unicode="&#xfe7a;" arabic-form="isolated" d="M390 -337l-392 -161v103l392 155v-97z" />
<glyph unicode="&#xfe7c;" arabic-form="isolated" d="M351 1413q3 0 12 -24t18.5 -58.5t16 -74t4.5 -69.5q-9 -27 -20 -51t-25.5 -42t-33 -29t-42.5 -14q-30 0 -56.5 11t-40.5 43q-9 -17 -20 -31t-27.5 -24t-39.5 -15.5t-55 -3.5q-39 5 -61.5 23t-32 43t-9 54.5t6 56.5t13.5 49.5t13 34.5l30 -13q0 -2 -1 -5q-2 -5 -3 -13 q-11 -55 1.5 -94t54.5 -47q28 3 46.5 19.5t30.5 40.5t19 53t13 57l37 4q3 -22 4.5 -43t-6.5 -55q7 -23 25 -38t47 -14q6 0 19.5 1t28.5 5.5t28 13t17 23.5q0 19 -8 43t-18.5 46.5t-20 39.5t-13.5 22l19 38q8 14 16 25.5t13 11.5z" />
<glyph unicode="&#xfe7e;" arabic-form="isolated" d="M188 1414q22 0 48.5 -13t50.5 -38.5t41 -63.5t19 -89q2 -38 -15 -69t-42.5 -53.5t-54.5 -34.5t-50 -12q-35 1 -62.5 17t-47 41t-30 55t-10.5 59q0 47 16.5 84.5t39.5 63.5t49.5 39.5t47.5 13.5zM182 1142q51 2 85 23.5t45 44.5q2 4 -7 21t-28 35t-46 32.5t-61 14.5 q-13 0 -30 -5t-32 -15.5t-25.5 -25.5t-10.5 -35q12 -46 40 -69t70 -21z" />
<glyph unicode="&#x622;" horiz-adv-x="618" arabic-form="final" d="M586 0q-90 0 -155.5 22t-108 63.5t-63.5 101t-21 134.5t-3.5 165t-9 186.5t-13 195.5t-14.5 191q-18 216 -39 440q7 7 23 22t35.5 32.5t40 35.5t38 32t29 22t12.5 5q5 -4 6.5 -13.5t1.5 -16.5q12 -207 17 -386t7 -331.5t2 -281t2 -234.5q1 -30 2 -50.5t2 -35.5t2.5 -25.5 t2.5 -19.5q19 -11 47 -19.5t57.5 -15t55 -10t39.5 -3.5h48v-206h-43zM-46 1699q6 29 18.5 66.5t29 71.5t36.5 57.5t42 25.5q41 2 85 -2t90 -10t92 -11t92 -5q34 0 64 5.5t54.5 14t44 17.5t33.5 15l17 -21q-12 -20 -35 -48t-55.5 -54.5t-72 -46.5t-84.5 -24 q-37 -5 -77.5 -2.5t-79.5 7.5t-74.5 10t-62.5 5q-25 -1 -45.5 -9.5t-37 -21.5t-29 -28t-21.5 -28z" />
<glyph unicode="&#x623;" horiz-adv-x="613" arabic-form="final" d="M582 0q-90 0 -155.5 22t-108 63.5t-63.5 101t-21 134.5t-3.5 165t-9 186.5t-13 195.5t-14.5 191q-18 216 -39 440q7 7 23 22t35.5 32.5t40 35.5t38 32t29 22t12.5 5q5 -4 6.5 -13.5t1.5 -16.5q12 -207 17 -386t7 -331.5t2 -281t2 -234.5q1 -30 2 -50.5t2 -35.5t2.5 -25.5 t2.5 -19.5q19 -11 47 -19.5t57.5 -15t55 -10t39.5 -3.5h48v-206h-43zM91 1760l116 65q-7 4 -22.5 16.5t-32 31.5t-30 44t-15.5 55q-2 29 17 68t49.5 74.5t68 60t72.5 24.5q50 0 94 -24t80 -88l-26 -13q-9 5 -42 16t-90 11q-29 0 -56 -13.5t-48 -31t-34 -34.5t-13 -24 q0 -8 10 -26t31 -36.5t55 -34.5t82 -20q30 4 53 8t42.5 8t36.5 8.5t35 9.5q1 1 -3.5 -14.5t-9.5 -33.5q-6 -22 -14 -49q-9 -2 -19.5 -3.5t-25.5 -4.5t-36.5 -8t-51.5 -12q-43 -9 -77 -19t-67.5 -23.5t-70.5 -31.5t-85 -43z" />
<glyph unicode="&#x624;" horiz-adv-x="942" arabic-form="final" d="M613 0q-75 0 -151 12.5t-137.5 47.5t-100.5 98t-40 164q0 30 9 73.5t27 92t45.5 96.5t63.5 86t81 62t98 24h2q58 -4 103.5 -30.5t80.5 -68.5t61 -96.5t43.5 -114.5t28 -122t15.5 -118h114v-206h-117q-8 -108 -49.5 -196.5t-100 -157.5t-126.5 -119.5t-130 -83 t-109.5 -47.5t-65.5 -14q-5 0 -7 1q-21 10 -54 27.5t-65.5 36t-59 34.5t-34.5 24q-9 8 -4 11.5t7 4.5q151 43 271.5 98t207 117.5t138.5 129.5t67 134h-112zM734 206q-4 17 -11 49.5t-19.5 71.5t-32 80t-47 75t-65 55.5t-86.5 21.5h-2q-39 0 -70 -15t-55 -38t-41 -50.5 t-27.5 -53.5t-15 -46.5t-2.5 -29.5q4 -24 24 -46t55 -38.5t86 -26t118 -9.5h191zM244 959l116 66q-8 4 -23.5 16.5t-32 31.5t-29.5 43.5t-15 54.5q-1 19 7.5 43t23.5 49t35.5 49t43.5 42.5t47.5 30t48.5 11.5q50 0 93.5 -23.5t78.5 -87.5l-25 -13q-9 4 -42 15.5t-89 11.5 q-29 0 -56 -13.5t-48 -31t-33.5 -34.5t-12.5 -24q0 -8 9.5 -25.5t31 -36.5t55 -34.5t81.5 -19.5q30 4 52.5 8t42 8t36.5 8.5t35 9.5q1 1 -3.5 -14t-9.5 -33q-6 -21 -15 -49q-8 -2 -18.5 -3.5t-25.5 -4.5t-36.5 -8t-51.5 -12q-43 -9 -77 -19t-67 -23.5t-69.5 -31.5t-84.5 -43 z" />
<glyph unicode="&#x625;" horiz-adv-x="553" arabic-form="final" d="M521 0q-90 0 -155.5 22t-108 63.5t-63.5 101t-21 134.5t-3.5 165t-9 186.5t-13 195.5t-14.5 191q-18 216 -39 440q7 7 23 22t35.5 32.5t40 35.5t38 32t29 22t12.5 5q5 -4 6.5 -13.5t1.5 -16.5q12 -207 17 -386t7 -331.5t2 -281t2 -234.5q1 -30 2 -50.5t2 -35.5t2.5 -25.5 t2.5 -19.5q19 -11 47 -19.5t57.5 -15t55 -10t39.5 -3.5h48v-206h-43zM151 -580l116 65q-7 4 -22.5 16.5t-32 31.5t-30 44t-15.5 55q-2 29 17 68t49.5 74.5t68 60t72.5 24.5q50 0 94 -24t80 -88l-26 -13q-9 5 -42 16t-90 11q-29 0 -56 -13.5t-48 -31t-34 -34.5t-13 -24 q0 -8 10 -26t31 -36.5t55 -34.5t82 -20q30 4 53 8t42.5 8t36.5 8.5t35 9.5q1 1 -3.5 -14.5t-9.5 -33.5q-6 -22 -14 -49q-9 -2 -19.5 -3.5t-25.5 -4.5t-36.5 -8t-51.5 -12q-43 -9 -77 -19t-67.5 -23.5t-70.5 -31.5t-85 -43z" />
<glyph unicode="&#x626;" horiz-adv-x="1598" arabic-form="final" d="M1606 0h-68.5t-77.5 2.5t-85 9.5t-90 21q84 -42 127 -75t57 -52l-12 -168q-15 -43 -66.5 -98.5t-133 -106t-191 -88t-240.5 -44.5q-111 -6 -217 6t-194 50t-153.5 106.5t-95.5 175t-19.5 255t73.5 347.5l15.5 46.5t21.5 61t24.5 64t23.5 55.5l69 -36q-12 -37 -29 -88.5 t-34 -108.5q-13 -52 -24 -112.5t-14.5 -124.5t2.5 -127.5t28 -121t61.5 -105t102 -80t151 -46.5t208.5 -3q115 9 213 29.5t171.5 47.5t117.5 58.5t52 62.5q-17 15 -65 46t-116 68.5t-149 76.5t-162 72q-3 0 2.5 12.5t15 31.5t21 40.5t22.5 40.5t19.5 31.5t10.5 12.5 q105 -14 189.5 -22t158.5 -11.5t141.5 -4.5t137.5 -1v-206zM541 347l116 66q-8 4 -23.5 16.5t-32 31.5t-29.5 43.5t-15 54.5q-1 19 7.5 43t23.5 49t35.5 49t43.5 42.5t47.5 30t48.5 11.5q50 0 93.5 -23.5t78.5 -87.5l-25 -13q-9 4 -42 15.5t-89 11.5q-29 0 -56 -13.5 t-48 -31t-33.5 -34.5t-12.5 -24q0 -8 9.5 -25.5t31 -36.5t55 -34.5t81.5 -19.5q30 4 52.5 8t42 8t36.5 8.5t35 9.5q1 1 -3.5 -14t-9.5 -33q-6 -21 -15 -49q-8 -2 -18.5 -3.5t-25.5 -4.5t-36.5 -8t-51.5 -12q-43 -9 -77 -19t-67 -23.5t-69.5 -31.5t-84.5 -43z" />
<glyph unicode="&#x626;" horiz-adv-x="678" arabic-form="initial" d="M132 1077l116 66q-8 4 -23.5 16.5t-32 31.5t-29.5 43.5t-15 54.5q-1 19 7.5 43t23.5 49t35.5 49t43.5 42.5t47.5 30t48.5 11.5q50 0 93.5 -23.5t78.5 -87.5l-25 -13q-9 4 -42 15.5t-89 11.5q-29 0 -56 -13.5t-48 -31t-33.5 -34.5t-12.5 -24q0 -8 9.5 -25.5t31 -36.5 t55 -34.5t81.5 -19.5q30 4 52.5 8t42 8t36.5 8.5t35 9.5q1 1 -3.5 -14t-9.5 -33q-6 -21 -15 -49q-8 -2 -18.5 -3.5t-25.5 -4.5t-36.5 -8t-51.5 -12q-43 -9 -77 -19t-67 -23.5t-69.5 -31.5t-84.5 -43zM519 870q4 1 20 -27t35 -79.5t36.5 -122.5t25 -155.5t-0.5 -179.5 t-39 -193q-30 -27 -87 -48t-132.5 -35.5t-165.5 -22t-186 -7.5h-35q-27 0 -50 11q-20 9 -37 30t-19 61q2 39 18.5 60t36.5 31q23 11 51 13h31q112 0 205 6.5t160.5 15.5t106.5 19t43 17q4 18 -3 51.5t-20.5 74t-31.5 84t-35.5 82.5t-32.5 69l-22 44q33 55 60 99q12 19 23 37 t20.5 32t16 23t8.5 10z" />
<glyph unicode="&#x626;" horiz-adv-x="779" arabic-form="medial" d="M-105 103q0 23 9 42t23.5 32.5t33.5 21t39 7.5q82 1 166 12q36 4 71.5 11.5t65.5 18t52 25t30 33.5q2 34 -5.5 79t-16.5 87q-11 48 -25 99q35 37 63 66q24 25 45 44.5t25 16.5l3.5 -17.5t8.5 -46.5t10.5 -67.5t10 -80.5t7 -85.5t1.5 -82.5q28 -29 71 -53q37 -20 94.5 -38 t121.5 -21h9v-206h-9q-48 0 -106.5 13t-105.5 35.5t-83 52t-59 62.5q-21 -32 -71.5 -61.5t-113.5 -52t-129 -36t-98 -13.5h-33q-20 0 -39 7t-33.5 20.5t-23.5 32.5t-9 43zM116 923l116 66q-8 4 -23.5 16.5t-32 31.5t-29.5 43.5t-15 54.5q-1 19 7.5 43t23.5 49t35.5 49 t43.5 42.5t47.5 30t48.5 11.5q50 0 93.5 -23.5t78.5 -87.5l-25 -13q-9 4 -42 15.5t-89 11.5q-29 0 -56 -13.5t-48 -31t-33.5 -34.5t-12.5 -24q0 -8 9.5 -25.5t31 -36.5t55 -34.5t81.5 -19.5q30 4 52.5 8t42 8t36.5 8.5t35 9.5q1 1 -3.5 -14t-9.5 -33q-6 -21 -15 -49 q-8 -2 -18.5 -3.5t-25.5 -4.5t-36.5 -8t-51.5 -12q-43 -9 -77 -19t-67 -23.5t-69.5 -31.5t-84.5 -43z" />
<glyph unicode="&#x627;" horiz-adv-x="596" arabic-form="final" d="M562 0q-90 0 -155.5 22t-108 63.5t-63.5 101t-21 134.5t-3.5 165t-9 186.5t-13 195.5t-14.5 191q-18 216 -39 440q7 7 23 22t35.5 32.5t40 35.5t38 32t29 22t12.5 5q5 -4 6.5 -13.5t1.5 -16.5q12 -207 17 -386t7 -331.5t2 -281t2 -234.5q1 -30 2 -50.5t2 -35.5t2.5 -25.5 t2.5 -19.5q19 -11 47 -19.5t57.5 -15t55 -10t39.5 -3.5h48v-206h-43z" />
<glyph unicode="&#x628;" horiz-adv-x="1981" arabic-form="final" d="M980 -24q-65 0 -145 2.5t-163.5 13t-165.5 32t-151 60t-120 97t-73 142t-9 195.5t72 258l73 -37q-40 -106 -41.5 -185.5t25 -138.5t75.5 -98.5t110.5 -64.5t130.5 -38.5t135 -19t124.5 -6t98.5 -0.5q61 0 131 3.5t141 12.5t140 24.5t129.5 40.5t109.5 59t79 81 q19 30 32 54.5t23 47.5t19 47.5t21 53.5l61 -18q-8 -37 -13 -60t-10.5 -44.5t-11.5 -47.5t-15 -68q1 -62 23.5 -96t54 -50t64.5 -19t56 -3v-206q-78 -2 -130 15t-85 49t-50.5 76.5t-25.5 96.5q-63 -74 -144 -123.5t-174 -80.5t-195 -44t-206 -13zM1114 -420l-158 -158 l-159 159l158 158z" />
<glyph unicode="&#x628;" horiz-adv-x="618" arabic-form="initial" d="M422 879q4 1 20 -28.5t35 -82.5t36.5 -126.5t25 -160t-0.5 -182.5t-39 -194q-30 -27 -82 -46.5t-115 -32.5t-133 -19.5t-136 -6.5h-35q-27 0 -50 11q-20 9 -37 30t-19 61q2 39 18.5 60t36.5 31q23 11 51 13h31q32 0 74.5 2.5t87 6.5t88 9t78.5 10.5t57 11t25 10.5 q3 21 -4.5 56.5t-21 77.5t-31 87.5t-34.5 85.5t-32 70.5t-22 44.5q33 55 60 99q12 19 23 37t20.5 32t16 23t8.5 10zM412 -376l-158 -158l-159 159l158 158z" />
<glyph unicode="&#x628;" horiz-adv-x="795" arabic-form="medial" d="M-99 103q0 23 9 42t23.5 32.5t33.5 21t39 7.5q82 1 166 12q36 4 71.5 11.5t65.5 18t52 25t30 33.5q2 34 -5.5 79t-16.5 87q-11 48 -25 99q35 37 63 66q24 25 45 44.5t25 16.5l3.5 -17.5t8.5 -46.5t10.5 -67.5t10 -80.5t7 -85.5t1.5 -82.5q28 -29 71 -53q37 -20 94.5 -38 t121.5 -21h9v-206h-9q-48 0 -106.5 13t-105.5 35.5t-83 52t-59 62.5q-21 -32 -71.5 -61.5t-113.5 -52t-129 -36t-98 -13.5h-33q-20 0 -39 7t-33.5 20.5t-23.5 32.5t-9 43zM555 -386l-158 -158l-159 159l158 158z" />
<glyph unicode="&#x629;" horiz-adv-x="1045" arabic-form="final" d="M1063 206v-206h-39q-84 4 -139.5 32.5t-90 69.5t-52.5 90.5t-26 95.5l-133 -137q-6 -2 -45.5 0.5t-95 10t-119.5 20.5t-120 33q-12 16 -22.5 45t-18.5 64t-13 73t-5.5 72.5t3.5 61.5t15 40q18 21 50 47.5t72.5 55.5t86 59t89.5 58.5t84 54t70 45.5q-3 19 -5.5 41.5 t-5.5 48.5l164 145q24 -215 43 -389q8 -74 16.5 -147t16 -133t13 -101.5t8.5 -53.5q4 -18 16 -35.5t33.5 -31t54 -21.5t78.5 -8h17zM221 493q1 -42 39 -69.5t104 -45t155 -27t191 -14.5l-74 413q-62 -31 -128 -63t-124 -64.5t-101.5 -65t-61.5 -64.5zM286 1188l-148 149 l147 149l150 -150zM660 1187l-150 149l149 149l148 -150z" />
<glyph unicode="&#x62a;" horiz-adv-x="1975" arabic-form="final" d="M976 -22q-65 0 -145 2.5t-163.5 13t-165.5 32t-151 60t-120 97t-73 142t-9 195.5t72 258l73 -37q-40 -106 -41.5 -185.5t25 -138.5t75.5 -98.5t110.5 -64.5t130.5 -38.5t135 -19t124.5 -6t98.5 -0.5q61 0 131 3.5t141 12.5t140 24.5t129.5 40.5t109.5 59t79 81 q19 30 32 54.5t23 47.5t19 47.5t21 53.5l61 -18q-8 -37 -13 -60t-10.5 -44.5t-11.5 -47.5t-15 -68q1 -62 23.5 -96t54 -50t64.5 -19t56 -3v-206q-78 -2 -130 15t-85 49t-50.5 76.5t-25.5 96.5q-63 -74 -144 -123.5t-174 -80.5t-195 -44t-206 -13zM834 627l-148 149l147 149 l150 -150zM1208 626l-150 149l149 149l148 -150z" />
<glyph unicode="&#x62a;" horiz-adv-x="755" arabic-form="initial" d="M216 1047l-148 149l147 149l150 -150zM590 1046l-150 149l149 149l148 -150zM521 870q4 1 20 -27t35 -79.5t36.5 -122.5t25 -155.5t-0.5 -179.5t-39 -193q-30 -27 -87 -48t-132.5 -35.5t-165.5 -22t-186 -7.5h-35q-27 0 -50 11q-20 9 -37 30t-19 61q2 39 18.5 60t36.5 31 q23 11 51 13h31q112 0 205 6.5t160.5 15.5t106.5 19t43 17q4 18 -3 51.5t-20.5 74t-31.5 84t-35.5 82.5t-32.5 69l-22 44q33 55 60 99q12 19 23 37t20.5 32t16 23t8.5 10z" />
<glyph unicode="&#x62a;" horiz-adv-x="898" arabic-form="medial" d="M-105 103q0 23 9 42t23.5 32.5t33.5 21t39 7.5q122 1 216 12q36 4 76.5 11.5t70.5 18t52 25t30 33.5q2 34 -5.5 79t-16.5 87q-11 48 -25 99q35 37 63 66q24 25 45 44.5t25 16.5l3.5 -17.5t8.5 -46.5t10.5 -67.5t10 -80.5t7 -85.5t1.5 -82.5q28 -29 71 -53 q37 -20 99.5 -38t156.5 -21h9v-206h-9q-78 0 -141.5 13t-110.5 35.5t-83 52t-59 62.5q-21 -32 -71.5 -61.5t-118.5 -52t-139 -36t-133 -13.5h-43q-20 0 -39 7t-33.5 20.5t-23.5 32.5t-9 43zM259 860l-148 149l147 149l150 -150zM633 859l-150 149l149 149l148 -150z" />
<glyph unicode="&#x62b;" horiz-adv-x="1975" arabic-form="final" d="M976 -24q-65 0 -145 2.5t-163.5 13t-165.5 32t-151 60t-120 97t-73 142t-9 195.5t72 258l73 -37q-40 -106 -41.5 -185.5t25 -138.5t75.5 -98.5t110.5 -64.5t130.5 -38.5t135 -19t124.5 -6t98.5 -0.5q61 0 131 3.5t141 12.5t140 24.5t129.5 40.5t109.5 59t79 81 q19 30 32 54.5t23 47.5t19 47.5t21 53.5l61 -18q-8 -37 -13 -60t-10.5 -44.5t-11.5 -47.5t-15 -68q1 -62 23.5 -96t54 -50t64.5 -19t56 -3v-206q-78 -2 -130 15t-85 49t-50.5 76.5t-25.5 96.5q-63 -74 -144 -123.5t-174 -80.5t-195 -44t-206 -13zM847 581l-148 149l147 149 l150 -150zM1199 581l-150 149l149 149l148 -150zM1162 1017l-141 -141l-143 142l141 141z" />
<glyph unicode="&#x62b;" horiz-adv-x="733" arabic-form="initial" d="M165 992l-148 149l147 149l150 -150zM517 992l-150 149l149 149l148 -150zM480 1428l-141 -141l-143 142l141 141zM529 870q4 1 20 -27t35 -79.5t36.5 -122.5t25 -155.5t-0.5 -179.5t-39 -193q-30 -27 -87 -48t-132.5 -35.5t-165.5 -22t-186 -7.5h-35q-27 0 -50 11 q-20 9 -37 30t-19 61q2 39 18.5 60t36.5 31q23 11 51 13h31q112 0 205 6.5t160.5 15.5t106.5 19t43 17q4 18 -3 51.5t-20.5 74t-31.5 84t-35.5 82.5t-32.5 69l-22 44q33 55 60 99q12 19 23 37t20.5 32t16 23t8.5 10z" />
<glyph unicode="&#x62b;" horiz-adv-x="898" arabic-form="medial" d="M-105 103q0 23 9 42t23.5 32.5t33.5 21t39 7.5q122 1 216 12q36 4 76.5 11.5t70.5 18t52 25t30 33.5q2 34 -5.5 79t-16.5 87q-11 48 -25 99q35 37 63 66q24 25 45 44.5t25 16.5l3.5 -17.5t8.5 -46.5t10.5 -67.5t10 -80.5t7 -85.5t1.5 -82.5q28 -29 71 -53 q37 -20 99.5 -38t156.5 -21h9v-206h-9q-78 0 -141.5 13t-110.5 35.5t-83 52t-59 62.5q-21 -32 -71.5 -61.5t-118.5 -52t-139 -36t-133 -13.5h-43q-20 0 -39 7t-33.5 20.5t-23.5 32.5t-9 43zM219 875l-148 149l147 149l150 -150zM571 875l-150 149l149 149l148 -150z M534 1311l-141 -141l-143 142l141 141z" />
<glyph unicode="&#x62c;" horiz-adv-x="1494" arabic-form="final" d="M1504 206v-206h-80q-87 0 -146 16.5t-97.5 46t-59.5 70t-31 90.5t-13.5 106.5t-5.5 118.5q-201 -23 -348 -76.5t-248.5 -124.5t-161.5 -153t-86 -161q18 -98 66 -169.5t117.5 -120.5t155 -78t178 -42.5t187 -13.5t181.5 9.5t162 25.5t128 34v-2q-11 -29 -22.5 -61.5 t-21.5 -60.5q-11 -33 -22 -65q-74 -38 -165 -60.5t-190 -28.5t-200.5 5.5t-196 41.5t-176.5 80t-142.5 120.5t-93.5 162.5t-30 208q0 45 13 106t47.5 127.5t95.5 134.5t157 127.5t231.5 104.5t320.5 67q-55 18 -119.5 39t-130 41.5t-126.5 39.5t-108.5 33.5t-77.5 23.5 t-32 9q-5 0 -14 -2t-22.5 -10t-31 -23.5t-38.5 -42.5q-15 -20 -29 -41t-31 -43l-64 39q39 67 70.5 123.5t63 97.5t67 64.5t83.5 24.5q46 1 103 -17t125.5 -47t148 -64.5t170.5 -70t194 -64.5t217 -47l-91 -186q-43 0 -84 -1.5t-80 -3.5q0 -69 18.5 -116.5t52 -77.5t80 -43.5 t103.5 -13.5h80zM943 -90l-158 -158l-159 159l158 158z" />
<glyph unicode="&#x62c;" horiz-adv-x="1469" arabic-form="initial" d="M-104 103q2 38 18.5 59t35.5 31q22 11 50 13q43 -1 108 3.5t145.5 15.5t171 29t184 45t186 63t176.5 83l50 28q-55 18 -122.5 40t-137.5 44.5t-136.5 43.5t-119 37.5t-85.5 26.5t-35 10q-5 0 -14.5 -2t-23 -10t-31 -24t-38.5 -43q-15 -19 -29 -40t-30 -43l-61 51 q39 67 70 121.5t62 93t66 60t83 22.5q46 1 101 -16t121.5 -44t144.5 -60t168.5 -64t194 -56t221.5 -36l-94 -185q-62 -26 -145.5 -66t-183.5 -84.5t-214.5 -89t-238 -80t-253.5 -58t-261 -22.5q-27 1 -49 12q-19 10 -36 30.5t-19 60.5zM864 -390l-158 -158l-159 159l158 158 z" />
<glyph unicode="&#x62c;" horiz-adv-x="1466" arabic-form="medial" d="M1475 206v-206h-80q-79 0 -139 12.5t-104.5 34t-75.5 49.5t-51 59q-6 17 -10 31t-7 26.5t-5 26t-4 30.5q-97 -44 -215.5 -92t-248.5 -87.5t-266.5 -64.5t-268.5 -25q-27 1 -49 12q-19 10 -36 31t-19 60q2 38 18.5 59t35.5 31q22 11 50 13q43 -1 106.5 3.5t142 16 t168.5 31.5t186.5 50t195.5 71t195 95q-55 18 -122.5 40.5t-137.5 45t-136.5 43.5t-119 37.5t-85.5 26.5t-35 10q-5 0 -14.5 -2t-23 -10t-31 -24t-38.5 -43q-15 -19 -29 -40.5t-30 -42.5l-66 44q39 67 70.5 122.5t63.5 95.5t68 62.5t84 23.5q45 1 100.5 -16t122 -44 t144.5 -60t168.5 -64t194 -56.5t221.5 -36.5l-94 -185l-166 -83q5 -32 23 -52t44 -32.5t57 -17.5t61.5 -7t58.5 -2h48h80zM817 -388l-158 -158l-159 159l158 158z" />
<glyph unicode="&#x62d;" horiz-adv-x="1479" arabic-form="final" d="M1504 206v-206h-80q-87 0 -146 16.5t-97.5 46t-59.5 70t-31 90.5t-13.5 106.5t-5.5 118.5q-201 -23 -348 -76.5t-248.5 -124.5t-161.5 -153t-86 -161q18 -98 66 -169.5t117.5 -120.5t155 -78t178 -42.5t187 -13.5t181.5 9.5t162 25.5t128 34v-2q-11 -29 -22.5 -61.5 t-21.5 -60.5q-11 -33 -22 -65q-74 -38 -165 -60.5t-190 -28.5t-200.5 5.5t-196 41.5t-176.5 80t-142.5 120.5t-93.5 162.5t-30 208q0 45 13 106t47.5 127.5t95.5 134.5t157 127.5t231.5 104.5t320.5 67q-55 18 -119.5 39t-130 41.5t-126.5 39.5t-108.5 33.5t-77.5 23.5 t-32 9q-5 0 -14 -2t-22.5 -10t-31 -23.5t-38.5 -42.5q-15 -20 -29 -41t-31 -43l-64 39q39 67 70.5 123.5t63 97.5t67 64.5t83.5 24.5q46 1 103 -17t125.5 -47t148 -64.5t170.5 -70t194 -64.5t217 -47l-91 -186q-43 0 -84 -1.5t-80 -3.5q0 -69 18.5 -116.5t52 -77.5t80 -43.5 t103.5 -13.5h80z" />
<glyph unicode="&#x62d;" horiz-adv-x="1447" arabic-form="initial" d="M-104 103q2 38 18.5 59t35.5 31q22 11 50 13q43 -1 108 3.5t145.5 15.5t171 29t184 45t186 63t176.5 83l50 28q-55 18 -122.5 40t-137.5 44.5t-136.5 43.5t-119 37.5t-85.5 26.5t-35 10q-5 0 -14.5 -2t-23 -10t-31 -24t-38.5 -43q-15 -19 -29 -40t-30 -43l-61 51 q39 67 70 121.5t62 93t66 60t83 22.5q46 1 101 -16t121.5 -44t144.5 -60t168.5 -64t194 -56t221.5 -36l-94 -185q-62 -26 -145.5 -66t-183.5 -84.5t-214.5 -89t-238 -80t-253.5 -58t-261 -22.5q-27 1 -49 12q-19 10 -36 30.5t-19 60.5z" />
<glyph unicode="&#x62d;" horiz-adv-x="1461" arabic-form="medial" d="M1475 206v-206h-80q-79 0 -139 12.5t-104.5 34t-75.5 49.5t-51 59q-6 17 -10 31t-7 26.5t-5 26t-4 30.5q-97 -44 -215.5 -92t-248.5 -87.5t-266.5 -64.5t-268.5 -25q-27 1 -49 12q-19 10 -36 31t-19 60q2 38 18.5 59t35.5 31q22 11 50 13q43 -1 106.5 3.5t142 16 t168.5 31.5t186.5 50t195.5 71t195 95q-55 18 -122.5 40.5t-137.5 45t-136.5 43.5t-119 37.5t-85.5 26.5t-35 10q-5 0 -14.5 -2t-23 -10t-31 -24t-38.5 -43q-15 -19 -29 -40.5t-30 -42.5l-66 44q39 67 70.5 122.5t63.5 95.5t68 62.5t84 23.5q45 1 100.5 -16t122 -44 t144.5 -60t168.5 -64t194 -56.5t221.5 -36.5l-94 -185l-166 -83q5 -32 23 -52t44 -32.5t57 -17.5t61.5 -7t58.5 -2h48h80z" />
<glyph unicode="&#x62e;" horiz-adv-x="1494" arabic-form="final" d="M1504 206v-206h-80q-87 0 -146 16.5t-97.5 46t-59.5 70t-31 90.5t-13.5 106.5t-5.5 118.5q-201 -23 -348 -76.5t-248.5 -124.5t-161.5 -153t-86 -161q18 -98 66 -169.5t117.5 -120.5t155 -78t178 -42.5t187 -13.5t181.5 9.5t162 25.5t128 34v-2q-11 -29 -22.5 -61.5 t-21.5 -60.5q-11 -33 -22 -65q-74 -38 -165 -60.5t-190 -28.5t-200.5 5.5t-196 41.5t-176.5 80t-142.5 120.5t-93.5 162.5t-30 208q0 45 13 106t47.5 127.5t95.5 134.5t157 127.5t231.5 104.5t320.5 67q-55 18 -119.5 39t-130 41.5t-126.5 39.5t-108.5 33.5t-77.5 23.5 t-32 9q-5 0 -14 -2t-22.5 -10t-31 -23.5t-38.5 -42.5q-15 -20 -29 -41t-31 -43l-64 39q39 67 70.5 123.5t63 97.5t67 64.5t83.5 24.5q46 1 103 -17t125.5 -47t148 -64.5t170.5 -70t194 -64.5t217 -47l-91 -186q-43 0 -84 -1.5t-80 -3.5q0 -69 18.5 -116.5t52 -77.5t80 -43.5 t103.5 -13.5h80zM773 1249l-158 -158l-159 159l158 158z" />
<glyph unicode="&#x62e;" horiz-adv-x="1462" arabic-form="initial" d="M-104 103q2 38 18.5 59t35.5 31q22 11 50 13q43 -1 108 3.5t145.5 15.5t171 29t184 45t186 63t176.5 83l50 28q-55 18 -122.5 40t-137.5 44.5t-136.5 43.5t-119 37.5t-85.5 26.5t-35 10q-5 0 -14.5 -2t-23 -10t-31 -24t-38.5 -43q-15 -19 -29 -40t-30 -43l-61 51 q39 67 70 121.5t62 93t66 60t83 22.5q46 1 101 -16t121.5 -44t144.5 -60t168.5 -64t194 -56t221.5 -36l-94 -185q-62 -26 -145.5 -66t-183.5 -84.5t-214.5 -89t-238 -80t-253.5 -58t-261 -22.5q-27 1 -49 12q-19 10 -36 30.5t-19 60.5zM666 1255l-158 -158l-159 159l158 158 z" />
<glyph unicode="&#x62e;" horiz-adv-x="1466" arabic-form="medial" d="M1475 206v-206h-80q-79 0 -139 12.5t-104.5 34t-75.5 49.5t-51 59q-6 17 -10 31t-7 26.5t-5 26t-4 30.5q-97 -44 -215.5 -92t-248.5 -87.5t-266.5 -64.5t-268.5 -25q-27 1 -49 12q-19 10 -36 31t-19 60q2 38 18.5 59t35.5 31q22 11 50 13q43 -1 106.5 3.5t142 16 t168.5 31.5t186.5 50t195.5 71t195 95q-55 18 -122.5 40.5t-137.5 45t-136.5 43.5t-119 37.5t-85.5 26.5t-35 10q-5 0 -14.5 -2t-23 -10t-31 -24t-38.5 -43q-15 -19 -29 -40.5t-30 -42.5l-66 44q39 67 70.5 122.5t63.5 95.5t68 62.5t84 23.5q45 1 100.5 -16t122 -44 t144.5 -60t168.5 -64t194 -56.5t221.5 -36.5l-94 -185l-166 -83q5 -32 23 -52t44 -32.5t57 -17.5t61.5 -7t58.5 -2h48h80zM663 1261l-158 -158l-159 159l158 158z" />
<glyph unicode="&#x62f;" horiz-adv-x="1078" arabic-form="final" d="M1090 206v-206h-19q-44 1 -81.5 15t-69 35t-56 48t-40.5 54q-10 -14 -30.5 -41t-58 -54t-94.5 -47t-138 -20q-71 0 -131.5 8t-105 18t-70.5 20t-28 15q-9 17 -16 42.5t-12 53.5t-7.5 56t-2.5 48.5t3.5 31.5t10.5 6q28 -21 59 -37t71 -27t91 -17t120 -6q45 0 87.5 2 t80 11.5t68 29.5t50.5 56q-32 73 -58 137.5t-51.5 129.5t-53 136.5t-63.5 160.5q33 57 61 102q12 19 23.5 37t21.5 32.5t17 22.5t10 8q3 -1 15.5 -49t34 -129t52.5 -186.5t72 -221.5q19 -47 42 -96t50 -88.5t59.5 -65t72.5 -25.5h14z" />
<glyph unicode="&#x630;" horiz-adv-x="1078" arabic-form="final" d="M1090 206v-206h-19q-44 1 -81.5 15t-69 35t-56 48t-40.5 54q-10 -14 -30.5 -41t-58 -54t-94.5 -47t-138 -20q-71 0 -131.5 8t-105 18t-70.5 20t-28 15q-9 17 -16 42.5t-12 53.5t-7.5 56t-2.5 48.5t3.5 31.5t10.5 6q28 -21 59 -37t71 -27t91 -17t120 -6q45 0 87.5 2 t80 11.5t68 29.5t50.5 56q-32 73 -58 137.5t-51.5 129.5t-53 136.5t-63.5 160.5q33 57 61 102q12 19 23.5 37t21.5 32.5t17 22.5t10 8q3 -1 15.5 -49t34 -129t52.5 -186.5t72 -221.5q19 -47 42 -96t50 -88.5t59.5 -65t72.5 -25.5h14zM800 1398l-158 -158l-159 159l158 158z " />
<glyph unicode="&#x631;" horiz-adv-x="794" arabic-form="final" d="M800 206v-206h-9q-16 0 -35.5 3.5t-40 11.5t-40.5 20.5t-36 31.5q9 -84 -7 -159t-49 -139.5t-78.5 -119t-96 -98t-101 -76t-92.5 -53t-71.5 -29.5t-38.5 -5q-22 9 -59 28.5t-73 39.5q-42 23 -89 50q-11 10 -6.5 14t7.5 5q138 42 258 97.5t208.5 125t139 153t50.5 182.5 q-21 46 -38.5 82t-36 74t-40 83.5t-49.5 111.5q5 9 14.5 26.5t22 38.5t26.5 43t26 40t21.5 29.5t13.5 11.5q1 0 4 -3q14 -31 34 -73.5t43.5 -88.5t50 -91t53.5 -81t54.5 -58t53.5 -22h6z" />
<glyph unicode="&#x632;" horiz-adv-x="788" arabic-form="final" d="M800 206v-206h-9q-16 0 -35.5 3.5t-40 11.5t-40.5 20.5t-36 31.5q9 -84 -7 -159t-49 -139.5t-78.5 -119t-96 -98t-101 -76t-92.5 -53t-71.5 -29.5t-38.5 -5q-22 9 -59 28.5t-73 39.5q-42 23 -89 50q-11 10 -6.5 14t7.5 5q138 42 258 97.5t208.5 125t139 153t50.5 182.5 q-21 46 -38.5 82t-36 74t-40 83.5t-49.5 111.5q5 9 14.5 26.5t22 38.5t26.5 43t26 40t21.5 29.5t13.5 11.5q1 0 4 -3q14 -31 34 -73.5t43.5 -88.5t50 -91t53.5 -81t54.5 -58t53.5 -22h6zM624 1025l-158 -158l-159 159l158 158z" />
<glyph unicode="&#x633;" horiz-adv-x="2600" arabic-form="final" d="M1550 203q72 0 118.5 28.5t77.5 76.5t52 111.5t43 132.5l94 31q-10 -50 -25 -105t-34 -124q7 -32 25.5 -59.5t43.5 -47t54 -30.5t57 -11q76 2 120 31.5t68 77.5t34 109.5t18 127.5l89 31q1 -26 -1 -56.5t-6.5 -61.5t-10.5 -61.5t-13 -56.5q16 -40 42.5 -67.5t60 -44 t72 -23t77.5 -6.5v-206q-69 0 -120.5 15.5t-88 43t-58.5 64.5t-31 79q-52 -101 -110.5 -150t-143.5 -51q-55 1 -92 16.5t-63.5 41.5t-44.5 62t-36 79q-21 -41 -46.5 -77t-58.5 -63t-75 -43t-95 -16q-22 0 -42 2t-40.5 7t-43.5 15t-50 25l-1 2q0 -162 -48.5 -288.5 t-138.5 -213t-219.5 -129.5t-291.5 -38q-100 3 -191.5 28.5t-163 80t-117 139.5t-54 207t26 283t123.5 368l73 -37q-36 -101 -65.5 -202t-41.5 -193.5t-0.5 -172.5t58 -140t133 -96t224.5 -40q135 4 235.5 26t171 66t114 112.5t63.5 165.5q-18 76 -40 142.5t-43.5 120 t-39.5 93t-27 62.5q18 30 40.5 65.5t42 65t33.5 46.5t16 11q25 -60 43.5 -110t36.5 -95q27 -68 52.5 -104t53 -52t58.5 -18t67 -2z" />
<glyph unicode="&#x633;" horiz-adv-x="1505" arabic-form="initial" d="M0 206q84 0 142 24t98 69t66.5 109t48.5 145l103 33q-7 -26 -13 -50q-5 -20 -10.5 -40.5t-7.5 -31.5q-15 -71 -10.5 -119t24.5 -77.5t53.5 -43.5t77.5 -18q77 4 122 32.5t73 75t46 108t42 130.5l100 33q-5 -48 -20.5 -109.5t-31.5 -121.5q9 -29 19.5 -55.5t29.5 -47 t49.5 -33t78.5 -12.5q26 0 59 2t65 12.5t58 32.5t38 63q-9 54 -23 105t-29 93t-29.5 72t-24.5 42l53 96q10 18 21 36t20.5 31.5t17.5 22t14 8.5q5 0 14 -23t19 -61.5t20 -89.5t16.5 -107.5t9.5 -114.5t-1 -110q-23 -71 -52.5 -130t-68.5 -101t-89 -64.5t-114 -20.5 q-56 1 -95 16t-66 40.5t-44.5 59.5t-28.5 72q-23 -43 -49.5 -78t-59 -59t-73 -37t-92.5 -12q-33 -1 -69 8t-68 32t-55 63t-29 101q-9 -40 -28.5 -70t-46 -51.5t-56.5 -36.5t-60 -24q-70 -22 -154 -24q-27 1 -49 12q-19 10 -36 31t-19 60q2 38 18.5 59t35.5 31q22 11 50 13z " />
<glyph unicode="&#x633;" horiz-adv-x="1598" arabic-form="medial" d="M26 206q75 -1 131 24t97 71t70 109t50 139l95 34q-10 -38 -21.5 -79t-20 -80.5t-10 -76t10 -65.5t38 -49t75.5 -27q71 -10 119 16.5t81 76.5t56 116.5t45 135.5l94 31q-10 -50 -25 -104.5t-34 -123.5q7 -32 25 -59.5t42.5 -47t53.5 -30.5t57 -11q76 2 120.5 31.5t69 77 t35 109t18.5 127.5l89 31q1 -26 -1 -56t-6.5 -61.5t-10.5 -61.5t-13 -56q16 -40 42.5 -67.5t60 -44t72 -23t77.5 -6.5v-206q-69 1 -120.5 17t-88 43t-58.5 63.5t-31 78.5q-52 -101 -112 -150t-145 -51q-55 1 -92 16.5t-62.5 41.5t-43.5 62t-36 79q-21 -41 -49 -77.5t-64 -64 t-79.5 -43t-95.5 -14.5q-47 0 -80 14.5t-55.5 41.5t-36 64.5t-22.5 84.5q-33 -77 -73 -119t-84.5 -61.5t-92 -22.5t-95.5 -3q-27 1 -49 12q-19 10 -36 31t-19 60q2 38 18.5 59t35.5 31q22 11 50 13h34z" />
<glyph unicode="&#x634;" horiz-adv-x="2643" arabic-form="final" d="M1552 203q72 0 118.5 28.5t77.5 76.5t52 111.5t43 132.5l94 31q-10 -50 -25 -105t-34 -124q7 -32 25.5 -59.5t43.5 -47t54 -30.5t57 -11q76 2 120 31.5t68 77.5t34 109.5t18 127.5l89 31q1 -26 -1 -56.5t-6.5 -61.5t-10.5 -61.5t-13 -56.5q16 -40 42.5 -67.5t60 -44 t72 -23t77.5 -6.5v-206q-69 0 -120.5 15.5t-88 43t-58.5 64.5t-31 79q-52 -101 -110.5 -150t-143.5 -51q-55 1 -92 16.5t-63.5 41.5t-44.5 62t-36 79q-21 -41 -46.5 -77t-58.5 -63t-75 -43t-95 -16q-22 0 -42 2t-40.5 7t-43.5 15t-50 25l-1 2q0 -162 -48.5 -288.5 t-138.5 -213t-219.5 -129.5t-291.5 -38q-100 3 -191.5 28.5t-163 80t-117 139.5t-54 207t26 283t123.5 368l73 -37q-36 -101 -65.5 -202t-41.5 -193.5t-0.5 -172.5t58 -140t133 -96t224.5 -40q135 4 235.5 26t171 66t114 112.5t63.5 165.5q-18 76 -40 142.5t-43.5 120 t-39.5 93t-27 62.5q18 30 40.5 65.5t42 65t33.5 46.5t16 11q25 -60 43.5 -110t36.5 -95q27 -68 52.5 -104t53 -52t58.5 -18t67 -2zM1713 807l-148 149l147 149l150 -150zM2065 807l-150 149l149 149l148 -150zM2028 1243l-141 -141l-143 142l141 141z" />
<glyph unicode="&#x634;" horiz-adv-x="1559" arabic-form="initial" d="M0 206q84 0 142 24t98 69t66.5 109t48.5 145l103 33q-7 -26 -13 -50q-5 -20 -10.5 -40.5t-7.5 -31.5q-15 -71 -10.5 -119t24.5 -77.5t53.5 -43.5t77.5 -18q77 4 122 32.5t73 75t46 108t42 130.5l100 33q-5 -48 -20.5 -109.5t-31.5 -121.5q9 -29 19.5 -55.5t29.5 -47 t49.5 -33t78.5 -12.5q26 0 59 2t65 12.5t58 32.5t38 63q-9 54 -23 105t-29 93t-29.5 72t-24.5 42l53 96q10 18 21 36t20.5 31.5t17.5 22t14 8.5q5 0 14 -23t19 -61.5t20 -89.5t16.5 -107.5t9.5 -114.5t-1 -110q-23 -71 -52.5 -130t-68.5 -101t-89 -64.5t-114 -20.5 q-56 1 -95 16t-66 40.5t-44.5 59.5t-28.5 72q-23 -43 -49.5 -78t-59 -59t-73 -37t-92.5 -12q-33 -1 -69 8t-68 32t-55 63t-29 101q-9 -40 -28.5 -70t-46 -51.5t-56.5 -36.5t-60 -24q-70 -22 -154 -24q-27 1 -49 12q-19 10 -36 31t-19 60q2 38 18.5 59t35.5 31q22 11 50 13z M725 867l-148 149l147 149l150 -150zM1077 867l-150 149l149 149l148 -150zM1040 1303l-141 -141l-143 142l141 141z" />
<glyph unicode="&#x634;" horiz-adv-x="1669" arabic-form="medial" d="M26 206q75 -1 131 24t97 71t70 109t50 139l95 34q-10 -38 -21.5 -79t-20 -80.5t-10 -76t10 -65.5t38 -49t75.5 -27q71 -10 119 16.5t81 76.5t56 116.5t45 135.5l94 31q-10 -50 -25 -104.5t-34 -123.5q7 -32 25 -59.5t42.5 -47t53.5 -30.5t57 -11q76 2 120.5 31.5t69 77 t35 109t18.5 127.5l89 31q1 -26 -1 -56t-6.5 -61.5t-10.5 -61.5t-13 -56q16 -40 42.5 -67.5t60 -44t72 -23t77.5 -6.5v-206q-69 1 -120.5 17t-88 43t-58.5 63.5t-31 78.5q-52 -101 -112 -150t-145 -51q-55 1 -92 16.5t-62.5 41.5t-43.5 62t-36 79q-21 -41 -49 -77.5t-64 -64 t-79.5 -43t-95.5 -14.5q-47 0 -80 14.5t-55.5 41.5t-36 64.5t-22.5 84.5q-33 -77 -73 -119t-84.5 -61.5t-92 -22.5t-95.5 -3q-27 1 -49 12q-19 10 -36 31t-19 60q2 38 18.5 59t35.5 31q22 11 50 13h34zM754 792l-148 149l147 149l150 -150zM1106 792l-150 149l149 149 l148 -150zM1069 1228l-141 -141l-143 142l141 141z" />
<glyph unicode="&#x635;" horiz-adv-x="2663" arabic-form="final" d="M2151 813q64 4 114 -8.5t88 -35t66 -52.5t47 -62q45 -75 60 -172q-8 -27 -18 -58.5t-22 -64t-25 -64.5t-26 -60q8 -7 35 -12.5t59.5 -10t63 -6.5t44.5 -1h42v-206h-42q-26 0 -60.5 1t-72.5 4t-76.5 8t-72.5 14t-60 21.5t-39 29.5q-80 -40 -172 -61t-184 -27.5t-179.5 -1 t-159 20t-122.5 35.5t-69 44v1q-3 -159 -52 -291t-139 -226t-218.5 -144.5t-288.5 -45.5q-100 3 -191.5 28.5t-163 80t-117 139.5t-54 207t26 283t123.5 368l73 -37q-36 -101 -65.5 -202t-41.5 -193.5t-0.5 -172.5t58 -140t133 -96t224.5 -40q135 4 235.5 26t171 66 t114 112.5t63.5 165.5q-18 76 -40 149.5t-43.5 135t-39.5 107.5l-27 69q18 30 40.5 65.5t42 65t33.5 46.5t16 11q6 -15 16.5 -42.5t24.5 -61.5t30.5 -71t34 -71.5t35.5 -64t34 -47.5q33 36 78.5 89t100.5 112.5t119 119t134.5 108t146 80.5t154.5 36zM2399 340 q16 74 -0.5 126.5t-60.5 85t-112 44t-154 4.5q-104 -21 -192 -67t-157.5 -101.5t-119.5 -112.5t-78 -100q18 -5 70 -14.5t125.5 -16t162.5 -6t180 15.5t178 48.5t158 93.5z" />
<glyph unicode="&#x635;" horiz-adv-x="1691" arabic-form="initial" d="M1270 813q68 4 119.5 -10t89 -40.5t62.5 -61.5t41 -72q37 -87 38 -201q-20 -66 -45 -136.5t-55 -128.5q-41 -46 -101.5 -79t-132.5 -55t-151 -33.5t-158 -14.5t-153.5 1.5t-136 15.5t-107 26.5t-66.5 34.5q-46 42 -75 98t-38 109q-29 -69 -67.5 -119t-87.5 -82.5 t-110 -48t-136 -16.5q-28 2 -51 13q-20 10 -36.5 30.5t-17.5 58.5q2 39 18 60t36 31q23 11 51 13q68 0 121.5 18t95 48.5t72.5 70t55 83t42.5 88t34.5 84.5l91 31q-20 -51 -30.5 -113t-7 -118.5t23 -100t60.5 -58.5q22 34 61.5 88t92.5 116t117.5 125.5t136 116t148.5 88 t156 40.5zM1508 338q16 73 1 126t-57 85.5t-109 45t-153 4.5q-104 -21 -192.5 -69t-159 -106t-121.5 -116.5t-79 -100.5q18 -5 70 -14t125 -14t161 -3.5t179 18t177.5 50.5t157.5 94z" />
<glyph unicode="&#x635;" horiz-adv-x="1756" arabic-form="medial" d="M1270 813q68 4 119.5 -10t89 -40.5t62.5 -61.5t41 -72q37 -87 38 -201q-17 -55 -36.5 -112.5t-42.5 -109.5h241v-206h-153h-59.5h-54h-42.5h-24q-24 1 -56.5 1.5t-64.5 2t-58.5 4t-37.5 6.5q-71 -17 -146 -25t-148 -9t-141 4.5t-124.5 16t-97.5 25.5t-61 33 q-46 42 -75 98t-38 109q-29 -69 -67.5 -119t-87.5 -82.5t-110 -48t-136 -16.5q-28 2 -51 13q-20 10 -36.5 30.5t-17.5 58.5q2 39 18 60t36 31q23 11 51 13q68 0 121.5 18t95 48.5t72.5 70t55 83t42.5 88t34.5 84.5l91 31q-20 -51 -30.5 -113t-7 -118.5t23 -100t60.5 -58.5 q22 34 61.5 88t92.5 116t117.5 125.5t136 116t148.5 88t156 40.5zM1508 338q16 73 1 126t-57 85.5t-109 45t-153 4.5q-104 -21 -192.5 -69t-159 -106t-121.5 -116.5t-79 -100.5q18 -5 70 -14t125 -14t161 -3.5t179 18t177.5 50.5t157.5 94z" />
<glyph unicode="&#x636;" horiz-adv-x="2670" arabic-form="final" d="M2151 813q64 4 114 -8.5t88 -35t66 -52.5t47 -62q45 -75 60 -172q-8 -27 -18 -58.5t-22 -64t-25 -64.5t-26 -60q8 -7 35 -12.5t59.5 -10t63 -6.5t44.5 -1h42v-206h-42q-26 0 -60.5 1t-72.5 4t-76.5 8t-72.5 14t-60 21.5t-39 29.5q-80 -40 -172 -61t-184 -27.5t-179.5 -1 t-159 20t-122.5 35.5t-69 44v1q-3 -159 -52 -291t-139 -226t-218.5 -144.5t-288.5 -45.5q-100 3 -191.5 28.5t-163 80t-117 139.5t-54 207t26 283t123.5 368l73 -37q-36 -101 -65.5 -202t-41.5 -193.5t-0.5 -172.5t58 -140t133 -96t224.5 -40q135 4 235.5 26t171 66 t114 112.5t63.5 165.5q-18 76 -40 149.5t-43.5 135t-39.5 107.5l-27 69q18 30 40.5 65.5t42 65t33.5 46.5t16 11q6 -15 16.5 -42.5t24.5 -61.5t30.5 -71t34 -71.5t35.5 -64t34 -47.5q33 36 78.5 89t100.5 112.5t119 119t134.5 108t146 80.5t154.5 36zM2399 340 q16 74 -0.5 126.5t-60.5 85t-112 44t-154 4.5q-104 -21 -192 -67t-157.5 -101.5t-119.5 -112.5t-78 -100q18 -5 70 -14.5t125.5 -16t162.5 -6t180 15.5t178 48.5t158 93.5zM2322 1169l-158 -158l-159 159l158 158z" />
<glyph unicode="&#x636;" horiz-adv-x="1707" arabic-form="initial" d="M1270 813q68 4 119.5 -10t89 -40.5t62.5 -61.5t41 -72q37 -87 38 -201q-20 -66 -45 -136.5t-55 -128.5q-41 -46 -101.5 -79t-132.5 -55t-151 -33.5t-158 -14.5t-153.5 1.5t-136 15.5t-107 26.5t-66.5 34.5q-46 42 -75 98t-38 109q-29 -69 -67.5 -119t-87.5 -82.5 t-110 -48t-136 -16.5q-28 2 -51 13q-20 10 -36.5 30.5t-17.5 58.5q2 39 18 60t36 31q23 11 51 13q68 0 121.5 18t95 48.5t72.5 70t55 83t42.5 88t34.5 84.5l91 31q-20 -51 -30.5 -113t-7 -118.5t23 -100t60.5 -58.5q22 34 61.5 88t92.5 116t117.5 125.5t136 116t148.5 88 t156 40.5zM1508 338q16 73 1 126t-57 85.5t-109 45t-153 4.5q-104 -21 -192.5 -69t-159 -106t-121.5 -116.5t-79 -100.5q18 -5 70 -14t125 -14t161 -3.5t179 18t177.5 50.5t157.5 94zM1395 1158l-158 -158l-159 159l158 158z" />
<glyph unicode="&#x636;" horiz-adv-x="1767" arabic-form="medial" d="M1270 813q68 4 119.5 -10t89 -40.5t62.5 -61.5t41 -72q37 -87 38 -201q-17 -55 -36.5 -112.5t-42.5 -109.5h241v-206h-153h-59.5h-54h-42.5h-24q-24 1 -56.5 1.5t-64.5 2t-58.5 4t-37.5 6.5q-71 -17 -146 -25t-148 -9t-141 4.5t-124.5 16t-97.5 25.5t-61 33 q-46 42 -75 98t-38 109q-29 -69 -67.5 -119t-87.5 -82.5t-110 -48t-136 -16.5q-28 2 -51 13q-20 10 -36.5 30.5t-17.5 58.5q2 39 18 60t36 31q23 11 51 13q68 0 121.5 18t95 48.5t72.5 70t55 83t42.5 88t34.5 84.5l91 31q-20 -51 -30.5 -113t-7 -118.5t23 -100t60.5 -58.5 q22 34 61.5 88t92.5 116t117.5 125.5t136 116t148.5 88t156 40.5zM1508 338q16 73 1 126t-57 85.5t-109 45t-153 4.5q-104 -21 -192.5 -69t-159 -106t-121.5 -116.5t-79 -100.5q18 -5 70 -14t125 -14t161 -3.5t179 18t177.5 50.5t157.5 94zM1397 1158l-158 -158l-159 159 l158 158z" />
<glyph unicode="&#x637;" horiz-adv-x="1670" arabic-form="final" d="M535 556q-2 76 -6 171.5t-10 195.5t-12.5 196.5t-13.5 176t-13.5 134t-10.5 70.5q10 11 37.5 35.5t57.5 49t54.5 42.5t29.5 17q2 0 4 -6t4 -29q1 -12 2.5 -46t3 -83t3.5 -110t3.5 -126.5t3 -132.5t2 -129.5t1 -116t-0.5 -92.5q0 -18 -0.5 -57.5t-5.5 -87t-15.5 -98 t-31.5 -91.5q53 63 117.5 127t136.5 117t149.5 88.5t157.5 41.5q68 4 119.5 -10t89 -40.5t62.5 -61.5t41 -72q37 -87 38 -201q-17 -55 -36.5 -112.5t-42.5 -109.5h238v-206h-121h-47h-43h-35h-21q-15 0 -42 0.5t-59 1.5t-67 2.5t-66 3.5t-55.5 4.5t-36.5 5.5h1 q-75 -14 -154 -20t-156.5 -7t-151.5 2t-138.5 7.5t-117 10t-87.5 8.5q-32 18 -68 50.5t-66.5 66t-49.5 61.5t-17 38q2 6 9 7.5t15 -0.5q36 -6 81 -13t90.5 -12.5t87 -9.5t70.5 -5q11 17 27.5 41t34.5 50q12 29 18 73.5t8 86.5q3 49 1 103zM1420 338q16 73 1 126t-57 85.5 t-109 45t-153 4.5q-104 -21 -192.5 -70.5t-159.5 -108.5t-122 -119t-79 -102q13 -4 47.5 -8.5t83.5 -7.5t109.5 -3.5t127 4t135.5 14.5t135 28t125.5 45.5t107.5 66.5z" />
<glyph unicode="&#x637;" horiz-adv-x="1354" arabic-form="initial" d="M268 556q-1 76 -5.5 171.5t-10.5 195.5t-12.5 196.5t-13.5 176t-13.5 134t-10.5 70.5q10 11 37.5 35.5t57.5 49t54.5 42.5t29.5 17q2 0 4 -6t4 -29q1 -12 2.5 -46t3 -83t3.5 -110t3.5 -126.5t3 -132.5t2 -129.5t1 -116t-0.5 -92.5q0 -18 -0.5 -57.5t-5.5 -87t-15.5 -98 t-31.5 -91.5q53 63 117.5 127t136.5 117t149.5 88.5t157.5 41.5q68 4 119.5 -10t89 -40.5t62.5 -61.5t41 -72q37 -87 38 -201q-20 -66 -45 -136.5t-55 -128.5q-53 -50 -126.5 -81t-159 -49t-179 -25t-184.5 -8h-520q-32 -1 -54.5 14.5t-35 38t-13.5 49.5t10 50t34.5 38.5 t61.5 15.5h178q11 17 28.5 39t35.5 48q12 29 18 73.5t8 86.5q3 49 1 103zM1153 338q16 73 1 126t-57 85.5t-109 45t-153 4.5q-69 -14 -131.5 -41t-118 -61t-102.5 -73.5t-85.5 -78.5t-67.5 -75t-48 -64h234q30 0 78 0.5t105.5 4.5t120.5 12t123.5 22.5t115 37t94.5 55.5z " />
<glyph unicode="&#x637;" horiz-adv-x="1395" arabic-form="medial" d="M271 556q-2 76 -6 171.5t-10 195.5t-12.5 196.5t-13.5 176t-13.5 134t-10.5 70.5q10 11 37.5 35.5t57.5 49t54.5 42.5t29.5 17q2 0 4 -6t4 -29q1 -12 2.5 -46t3 -83t3.5 -110t3.5 -126.5t3 -132.5t2 -129.5t1 -116t-0.5 -92.5q0 -18 -0.5 -57.5t-5.5 -87t-15.5 -98 t-31.5 -91.5q53 63 117.5 127t136.5 117t149.5 88.5t157.5 41.5q68 4 119.5 -10t89 -40.5t62.5 -61.5t41 -72q37 -87 38 -201q-17 -55 -36.5 -112.5t-42.5 -109.5h224v-206h-103h-78t-50 1q-16 0 -42.5 1t-58 3t-64.5 4.5t-62 6t-50.5 7t-29.5 8.5q-85 -17 -175.5 -23.5 t-180.5 -7.5h-520q-32 -1 -54.5 14.5t-35 38t-13.5 49.5t10 50t34.5 38.5t61.5 15.5h178q11 17 28.5 39t35.5 48q12 29 18 73.5t8 86.5q3 49 1 103zM1156 338q16 73 1 126t-57 85.5t-109 45t-153 4.5q-69 -14 -131.5 -41t-118 -61t-102.5 -73.5t-85.5 -78.5t-67.5 -75 t-48 -64h234q30 0 78 0.5t105.5 4.5t120.5 12t123.5 22.5t115 37t94.5 55.5z" />
<glyph unicode="&#x638;" horiz-adv-x="1680" arabic-form="final" d="M535 556q-2 76 -6 171.5t-10 195.5t-12.5 196.5t-13.5 176t-13.5 134t-10.5 70.5q10 11 37.5 35.5t57.5 49t54.5 42.5t29.5 17q2 0 4 -6t4 -29q1 -12 2.5 -46t3 -83t3.5 -110t3.5 -126.5t3 -132.5t2 -129.5t1 -116t-0.5 -92.5q0 -18 -0.5 -57.5t-5.5 -87t-15.5 -98 t-31.5 -91.5q53 63 117.5 127t136.5 117t149.5 88.5t157.5 41.5q68 4 119.5 -10t89 -40.5t62.5 -61.5t41 -72q37 -87 38 -201q-17 -55 -36.5 -112.5t-42.5 -109.5h238v-206h-121h-47h-43h-35h-21q-15 0 -42 0.5t-59 1.5t-67 2.5t-66 3.5t-55.5 4.5t-36.5 5.5h1 q-75 -14 -154 -20t-156.5 -7t-151.5 2t-138.5 7.5t-117 10t-87.5 8.5q-32 18 -68 50.5t-66.5 66t-49.5 61.5t-17 38q2 6 9 7.5t15 -0.5q36 -6 81 -13t90.5 -12.5t87 -9.5t70.5 -5q11 17 27.5 41t34.5 50q12 29 18 73.5t8 86.5q3 49 1 103zM1420 338q16 73 1 126t-57 85.5 t-109 45t-153 4.5q-104 -21 -192.5 -70.5t-159.5 -108.5t-122 -119t-79 -102q13 -4 47.5 -8.5t83.5 -7.5t109.5 -3.5t127 4t135.5 14.5t135 28t125.5 45.5t107.5 66.5zM1312 1181l-158 -158l-159 159l158 158z" />
<glyph unicode="&#x638;" horiz-adv-x="1362" arabic-form="initial" d="M268 556q-1 76 -5.5 171.5t-10.5 195.5t-12.5 196.5t-13.5 176t-13.5 134t-10.5 70.5q10 11 37.5 35.5t57.5 49t54.5 42.5t29.5 17q2 0 4 -6t4 -29q1 -12 2.5 -46t3 -83t3.5 -110t3.5 -126.5t3 -132.5t2 -129.5t1 -116t-0.5 -92.5q0 -18 -0.5 -57.5t-5.5 -87t-15.5 -98 t-31.5 -91.5q53 63 117.5 127t136.5 117t149.5 88.5t157.5 41.5q68 4 119.5 -10t89 -40.5t62.5 -61.5t41 -72q37 -87 38 -201q-20 -66 -45 -136.5t-55 -128.5q-53 -50 -126.5 -81t-159 -49t-179 -25t-184.5 -8h-520q-32 -1 -54.5 14.5t-35 38t-13.5 49.5t10 50t34.5 38.5 t61.5 15.5h178q11 17 28.5 39t35.5 48q12 29 18 73.5t8 86.5q3 49 1 103zM1153 338q16 73 1 126t-57 85.5t-109 45t-153 4.5q-69 -14 -131.5 -41t-118 -61t-102.5 -73.5t-85.5 -78.5t-67.5 -75t-48 -64h234q30 0 78 0.5t105.5 4.5t120.5 12t123.5 22.5t115 37t94.5 55.5z M1010 1172l-158 -158l-159 159l158 158z" />
<glyph unicode="&#x638;" horiz-adv-x="1401" arabic-form="medial" d="M271 556q-2 76 -6 171.5t-10 195.5t-12.5 196.5t-13.5 176t-13.5 134t-10.5 70.5q10 11 37.5 35.5t57.5 49t54.5 42.5t29.5 17q2 0 4 -6t4 -29q1 -12 2.5 -46t3 -83t3.5 -110t3.5 -126.5t3 -132.5t2 -129.5t1 -116t-0.5 -92.5q0 -18 -0.5 -57.5t-5.5 -87t-15.5 -98 t-31.5 -91.5q53 63 117.5 127t136.5 117t149.5 88.5t157.5 41.5q68 4 119.5 -10t89 -40.5t62.5 -61.5t41 -72q37 -87 38 -201q-17 -55 -36.5 -112.5t-42.5 -109.5h224v-206h-103h-78t-50 1q-16 0 -42.5 1t-58 3t-64.5 4.5t-62 6t-50.5 7t-29.5 8.5q-85 -17 -175.5 -23.5 t-180.5 -7.5h-520q-32 -1 -54.5 14.5t-35 38t-13.5 49.5t10 50t34.5 38.5t61.5 15.5h178q11 17 28.5 39t35.5 48q12 29 18 73.5t8 86.5q3 49 1 103zM1156 338q16 73 1 126t-57 85.5t-109 45t-153 4.5q-69 -14 -131.5 -41t-118 -61t-102.5 -73.5t-85.5 -78.5t-67.5 -75 t-48 -64h234q30 0 78 0.5t105.5 4.5t120.5 12t123.5 22.5t115 37t94.5 55.5zM1031 1181l-158 -158l-159 159l158 158z" />
<glyph unicode="&#x639;" horiz-adv-x="1321" arabic-form="final" d="M463 656q9 -9 25.5 -23.5t38 -33.5t45.5 -40l48 -42q55 -49 121 -106q32 13 70.5 32.5t76 42t72 47.5t60.5 49t39.5 45.5t9.5 37.5q-12 9 -43 20.5t-76 21.5t-101.5 15t-120 1t-131 -19.5t-134.5 -47.5zM726 229q-111 -35 -203 -88t-158 -109.5t-104 -109.5t-42 -88 q28 -65 72 -125t117 -106.5t182 -74.5t267 -28q88 0 154.5 7.5t117.5 18.5t88.5 22.5t68.5 19.5l-67 -172q-139 -63 -273 -84.5t-253.5 -9.5t-220 54.5t-174 108t-115 151.5t-42.5 185q1 48 13 100.5t35 105t56 102.5t76 92q2 2 23 20.5t54.5 43t77 50t90.5 42.5l-256 224 q11 52 21 93q4 17 7.5 34t6.5 30t5 21.5l2 8.5q9 9 46.5 30t97 42.5t135.5 37t162 13.5q51 -2 106.5 -12t107 -28t94 -44t66.5 -59q0 -55 -0.5 -99t-7 -81.5t-22.5 -69.5t-46.5 -63.5t-78.5 -64.5t-119 -72q8 -6 46.5 -20.5t90 -30.5t109 -28t104.5 -12q14 -1 29 -1h28h30 v-206h-117q-31 0 -82 13t-106 33.5t-106.5 45.5t-82.5 49q-12 8 -18 12.5l-10 7.5l-8 6t-12 10t-22.5 19t-39.5 33z" />
<glyph unicode="&#x639;" horiz-adv-x="1078" arabic-form="initial" d="M0 0q-28 1 -51 12q-20 9 -37 30t-19 61q0 29 11 49t27.5 32t35 17t33.5 5q69 2 127 3q25 0 49.5 0.5t45.5 1t36.5 0.5h21.5q-68 51 -96 110.5t-28 119.5q0 37 16.5 83t45.5 94t67.5 93.5t82 81t89.5 57t91 21.5q48 0 92.5 -10.5t86 -35t79.5 -65t72 -100.5l-48 -26 q-8 4 -28.5 12.5t-52 17t-74.5 15t-96 6.5q-36 0 -71.5 -12t-67 -31t-58.5 -42t-46.5 -44.5t-30.5 -39.5t-11 -26q0 -10 9 -29.5t28 -42.5t48 -48.5t68 -47.5t88 -39t108 -23q51 4 94.5 11.5t82.5 19t76.5 26.5t77.5 33q1 1 -1 -6.5t-5.5 -20.5t-8 -29.5t-9.5 -33.5 q-11 -40 -27 -93q-64 -34 -138 -58t-154 -41.5t-163.5 -28.5t-165 -18t-158.5 -12t-144 -9z" />
<glyph unicode="&#x639;" horiz-adv-x="1165" arabic-form="medial" d="M-104 104q0 22 9 40.5t23.5 32t33 21.5t38.5 8h71q57 2 121.5 4t123 6t105.5 10.5t69 18.5l-358 298q15 55 26 99q10 38 18.5 68.5t8.5 32.5q9 9 46 29.5t95 41.5t133.5 35.5t161.5 10.5q51 -2 102.5 -9.5t98.5 -17.5t85.5 -22.5t62.5 -25.5l33 -154q-12 -41 -34 -88 t-53.5 -97.5t-72 -102t-90.5 -102.5q17 -9 53 -15t81 -10t94 -6t91 -3t72.5 -1h39.5v-206q-73 0 -146 -1.5t-143.5 9t-137.5 41t-128 93.5q-47 -47 -112 -73.5t-139.5 -40t-152.5 -19t-150 -9.5h-75q-20 0 -38.5 7.5t-33 21.5t-23.5 33t-9 42zM265 627q9 -9 30 -26.5 t48.5 -40.5t60.5 -49.5t66 -53.5q77 -62 169 -137q30 22 63 57.5t65 78.5t60 90t46 92q-12 9 -48.5 17.5t-88 14t-113.5 7.5t-125.5 -2t-124 -15.5t-108.5 -32.5z" />
<glyph unicode="&#x63a;" horiz-adv-x="1319" arabic-form="final" d="M463 656q9 -9 25.5 -23.5t38 -33.5t45.5 -40l48 -42q55 -49 121 -106q32 13 70.5 32.5t76 42t72 47.5t60.5 49t39.5 45.5t9.5 37.5q-12 9 -43 20.5t-76 21.5t-101.5 15t-120 1t-131 -19.5t-134.5 -47.5zM726 229q-111 -35 -203 -88t-158 -109.5t-104 -109.5t-42 -88 q28 -65 72 -125t117 -106.5t182 -74.5t267 -28q88 0 154.5 7.5t117.5 18.5t88.5 22.5t68.5 19.5l-67 -172q-139 -63 -273 -84.5t-253.5 -9.5t-220 54.5t-174 108t-115 151.5t-42.5 185q1 48 13 100.5t35 105t56 102.5t76 92q2 2 23 20.5t54.5 43t77 50t90.5 42.5l-256 224 q11 52 21 93q4 17 7.5 34t6.5 30t5 21.5l2 8.5q9 9 46.5 30t97 42.5t135.5 37t162 13.5q51 -2 106.5 -12t107 -28t94 -44t66.5 -59q0 -55 -0.5 -99t-7 -81.5t-22.5 -69.5t-46.5 -63.5t-78.5 -64.5t-119 -72q8 -6 46.5 -20.5t90 -30.5t109 -28t104.5 -12q14 -1 29 -1h28h30 v-206h-117q-31 0 -82 13t-106 33.5t-106.5 45.5t-82.5 49q-12 8 -18 12.5l-10 7.5l-8 6t-12 10t-22.5 19t-39.5 33zM925 1191l-158 -158l-159 159l158 158z" />
<glyph unicode="&#x63a;" horiz-adv-x="1067" arabic-form="initial" d="M0 0q-28 1 -51 12q-20 9 -37 30t-19 61q0 29 11 49t27.5 32t35 17t33.5 5q69 2 127 3q25 0 49.5 0.5t45.5 1t36.5 0.5h21.5q-68 51 -96 110.5t-28 119.5q0 37 16.5 83t45.5 94t67.5 93.5t82 81t89.5 57t91 21.5q48 0 92.5 -10.5t86 -35t79.5 -65t72 -100.5l-48 -26 q-8 4 -28.5 12.5t-52 17t-74.5 15t-96 6.5q-36 0 -71.5 -12t-67 -31t-58.5 -42t-46.5 -44.5t-30.5 -39.5t-11 -26q0 -10 9 -29.5t28 -42.5t48 -48.5t68 -47.5t88 -39t108 -23q51 4 94.5 11.5t82.5 19t76.5 26.5t77.5 33q1 1 -1 -6.5t-5.5 -20.5t-8 -29.5t-9.5 -33.5 q-11 -40 -27 -93q-64 -34 -138 -58t-154 -41.5t-163.5 -28.5t-165 -18t-158.5 -12t-144 -9zM727 1170l-158 -158l-159 159l158 158z" />
<glyph unicode="&#x63a;" horiz-adv-x="1171" arabic-form="medial" d="M-104 104q0 22 9 40.5t23.5 32t33 21.5t38.5 8h71q57 2 121.5 4t123 6t105.5 10.5t69 18.5l-358 298q15 55 26 99q10 38 18.5 68.5t8.5 32.5q9 9 46 29.5t95 41.5t133.5 35.5t161.5 10.5q51 -2 102.5 -9.5t98.5 -17.5t85.5 -22.5t62.5 -25.5l33 -154q-12 -41 -34 -88 t-53.5 -97.5t-72 -102t-90.5 -102.5q17 -9 53 -15t81 -10t94 -6t91 -3t72.5 -1h39.5v-206q-73 0 -146 -1.5t-143.5 9t-137.5 41t-128 93.5q-47 -47 -112 -73.5t-139.5 -40t-152.5 -19t-150 -9.5h-75q-20 0 -38.5 7.5t-33 21.5t-23.5 33t-9 42zM265 627q9 -9 30 -26.5 t48.5 -40.5t60.5 -49.5t66 -53.5q77 -62 169 -137q30 22 63 57.5t65 78.5t60 90t46 92q-12 9 -48.5 17.5t-88 14t-113.5 7.5t-125.5 -2t-124 -15.5t-108.5 -32.5zM797 1170l-158 -158l-159 159l158 158z" />
<glyph unicode="&#x641;" horiz-adv-x="2046" arabic-form="final" d="M979 -30q-65 0 -145 2.5t-163.5 13t-166 32t-151.5 60t-120.5 97t-73 142t-9 195.5t71.5 258l73 -37q-40 -106 -41 -185.5t25.5 -138.5t76 -98.5t111.5 -64.5t131.5 -38.5t136 -19t125 -6t98.5 -0.5q95 2 183 6q37 1 77 3t77.5 4t71 4.5t58.5 5.5l1 1q-12 15 -26 33.5 t-27.5 44t-25.5 59.5t-19 81q2 39 12.5 87.5t28 98.5t43 97t59 84t75 59.5t90.5 23.5q51 1 90.5 -19.5t69.5 -54t50.5 -78t33.5 -92t20 -94.5t10 -87q-9 -51 -16 -83t-16 -56t-21.5 -45.5t-31.5 -52.5q13 -2 43.5 -3.5t65 -2t65.5 -0.5h44h14v-206h-24q-17 -1 -49.5 1 t-73.5 5.5t-85.5 8.5t-85 11.5t-72 13.5t-46.5 15q-24 -13 -72.5 -25t-109 -21t-127.5 -16.5t-130.5 -12.5t-117 -7.5t-85.5 -2.5zM1636 267q16 6 45 21.5t58 40t52.5 56.5t29.5 70q-10 31 -30.5 69t-49.5 71t-65 55t-76 22q-39 0 -74 -19.5t-61.5 -52t-42 -74t-15.5 -85.5 q6 -23 28 -49.5t53.5 -50.5t70 -44t77.5 -30zM1785 1228l-158 -158l-159 159l158 158z" />
<glyph unicode="&#x641;" horiz-adv-x="925" arabic-form="initial" d="M70 206q62 0 133.5 1t141 6t133.5 17t111.5 33t73 54t20.5 81q-29 -8 -66 -13q-32 -5 -76 -6.5t-100 3.5q-158 15 -236.5 84t-61.5 188q1 13 6.5 46.5t19 76t35.5 89t55.5 85.5t80 64t108.5 26q54 0 98.5 -23.5t80 -63t62 -91.5t46 -108t32 -113t18.5 -106 q15 -117 4 -202.5t-47 -145t-96.5 -96.5t-144.5 -57.5t-191.5 -27.5t-237.5 -7h-72q-16 0 -34.5 6t-34 19t-25.5 32t-10 45q1 27 10.5 46.5t24.5 32.5t33.5 19t35.5 6h70zM669 571q-4 12 -11.5 38t-21 58.5t-32.5 66.5t-45 62.5t-59.5 46.5t-75.5 18q-44 0 -76 -13.5 t-55 -34.5t-37.5 -46t-23 -48.5t-12 -42t-3.5 -25.5q9 -17 32.5 -31.5t56.5 -25.5t73 -19t81 -11q58 -5 98 -4t65 3q29 3 46 8zM612 1392l-158 -158l-159 159l158 158z" />
<glyph unicode="&#x641;" horiz-adv-x="942" arabic-form="medial" d="M11 206h98h37.5h51t51 0.5t38.5 0.5q-12 15 -25.5 32t-27 42t-26.5 59t-25 84q0 39 9 88t26.5 99t43.5 97.5t61 84.5t78 59t94 22q48 0 86 -20.5t67.5 -54.5t51 -78t36 -91t22.5 -94t10 -87q-9 -51 -17 -83t-18.5 -55.5t-24 -45t-32.5 -52.5q14 -3 40.5 -4.5t55 -2 t64.5 -0.5h49h64v-206h-73q-17 -1 -57 1.5t-77 6.5t-77 10t-76.5 13t-65.5 14.5t-43 15.5q-11 -8 -37 -15.5t-61 -14t-74.5 -12.5t-76.5 -10t-68.5 -6.5t-49.5 -2.5h-104h-7q-40 0 -72 26t-33 75q0 24 8.5 43.5t23.5 33t34 21t39 7.5h9zM675 456q-10 31 -30.5 68.5 t-49.5 70.5t-65 55t-76 22q-39 0 -74 -19.5t-61.5 -52t-42 -74t-15.5 -85.5q6 -23 28 -49.5t53.5 -50.5t70 -44t77.5 -30q16 6 45 21.5t58 40t52.5 56.5t29.5 71zM634 1243l-158 -158l-159 159l158 158z" />
<glyph unicode="&#x642;" horiz-adv-x="1461" arabic-form="final" d="M1027 756q57 -4 103 -30.5t81 -68.5t61 -96.5t43.5 -114.5t28 -122t15.5 -118h114v-206h-116q-7 -139 -52.5 -250t-129.5 -188.5t-205 -119t-280 -41.5q-119 0 -218 29t-170.5 88.5t-112.5 150t-45 213.5t31.5 279t117.5 347l69 -38q-34 -108 -63 -211.5t-41 -195.5 t-1 -170t57.5 -136t135 -93t231.5 -40q128 1 227 29.5t169.5 79t112.5 119t56 148.5h-133q-50 0 -99.5 5t-95 18.5t-85 36.5t-69 58.5t-46.5 85.5t-17 118q0 30 9 73.5t27 92t45.5 96.5t63.5 86t81 62t98 24h2zM1251 206q-4 17 -11 49.5t-19.5 71.5t-32 80t-47 75t-65 55.5 t-86.5 21.5h-2q-39 0 -70 -15t-55 -38t-41 -50.5t-27.5 -53.5t-15 -46.5t-2.5 -29.5q4 -24 21 -46t49.5 -38.5t80.5 -26t115 -9.5h208zM804 943l-148 149l147 149l150 -150zM1178 942l-150 149l149 149l148 -150z" />
<glyph unicode="&#x642;" horiz-adv-x="908" arabic-form="initial" d="M70 206q62 0 133.5 1t141 6t133.5 17t111.5 33t73 54t20.5 81q-29 -8 -66 -13q-32 -5 -76 -6.5t-100 3.5q-158 15 -236.5 84t-61.5 188q1 13 6.5 46.5t19 76t35.5 89t55.5 85.5t80 64t108.5 26q54 0 98.5 -23.5t80 -63t62 -91.5t46 -108t32 -113t18.5 -106 q15 -117 4 -202.5t-47 -145t-96.5 -96.5t-144.5 -57.5t-191.5 -27.5t-237.5 -7h-72q-16 0 -34.5 6t-34 19t-25.5 32t-10 45q1 27 10.5 46.5t24.5 32.5t33.5 19t35.5 6h70zM669 571q-4 12 -11.5 38t-21 58.5t-32.5 66.5t-45 62.5t-59.5 46.5t-75.5 18q-44 0 -76 -13.5 t-55 -34.5t-37.5 -46t-23 -48.5t-12 -42t-3.5 -25.5q9 -17 32.5 -31.5t56.5 -25.5t73 -19t81 -11q58 -5 98 -4t65 3q29 3 46 8zM276 1242l-148 149l147 149l150 -150zM650 1241l-150 149l149 149l148 -150z" />
<glyph unicode="&#x642;" horiz-adv-x="942" arabic-form="medial" d="M11 206h98h37.5h51t51 0.5t38.5 0.5q-12 15 -25.5 32t-27 42t-26.5 59t-25 84q0 39 9 88t26.5 99t43.5 97.5t61 84.5t78 59t94 22q48 0 86 -20.5t67.5 -54.5t51 -78t36 -91t22.5 -94t10 -87q-9 -51 -17 -83t-18.5 -55.5t-24 -45t-32.5 -52.5q14 -3 40.5 -4.5t55 -2 t64.5 -0.5h49h64v-206h-73q-17 -1 -57 1.5t-77 6.5t-77 10t-76.5 13t-65.5 14.5t-43 15.5q-11 -8 -37 -15.5t-61 -14t-74.5 -12.5t-76.5 -10t-68.5 -6.5t-49.5 -2.5h-104h-7q-40 0 -72 26t-33 75q0 24 8.5 43.5t23.5 33t34 21t39 7.5h9zM675 456q-10 31 -30.5 68.5 t-49.5 70.5t-65 55t-76 22q-39 0 -74 -19.5t-61.5 -52t-42 -74t-15.5 -85.5q6 -23 28 -49.5t53.5 -50.5t70 -44t77.5 -30q16 6 45 21.5t58 40t52.5 56.5t29.5 71zM266 1096l-148 149l147 149l150 -150zM640 1095l-150 149l149 149l148 -150z" />
<glyph unicode="&#x643;" horiz-adv-x="1992" arabic-form="final" d="M1767 1643q5 -4 7.5 -59.5t2.5 -146t-1 -209t-2.5 -248t-2.5 -262.5t-1 -253q0 -65 12.5 -109t31.5 -73t42.5 -44.5t46 -23t41 -8.5t27.5 -1h39v-206h-50q-36 0 -76.5 10.5t-77 28.5t-65 41.5t-40.5 48.5q-47 -32 -112 -56t-139 -41t-153 -28t-154.5 -17.5t-142.5 -9.5 t-118 -4q-69 -1 -145.5 4t-152.5 19t-148 40t-130 67.5t-99 101t-56 141t0 187t69 239.5l73 -37q-36 -98 -40 -173.5t16.5 -133t61.5 -98t94.5 -68t115.5 -44t124.5 -24.5t121.5 -9.5t106 -0.5q32 1 91 4.5t132.5 10t154 17.5t154.5 26.5t134 36t92 47.5q-1 14 -2.5 57 t-4 106.5t-6 144t-7 169.5t-8 182.5t-9 184t-9.5 173.5t-10 151q46 44 83 77q16 14 31 27.5t27.5 24t20.5 16t10 4.5zM784 539l116 66q-8 4 -23.5 16.5t-32 31.5t-29.5 43.5t-15 54.5q-1 19 7.5 43t23.5 49t35.5 49t43.5 42.5t47.5 30t48.5 11.5q50 0 93.5 -23.5t78.5 -87.5 l-25 -13q-9 4 -42 15.5t-89 11.5q-29 0 -56 -13.5t-48 -31t-33.5 -34.5t-12.5 -24q0 -8 9.5 -25.5t31 -36.5t55 -34.5t81.5 -19.5q30 4 52.5 8t42 8t36.5 8.5t35 9.5q1 1 -3.5 -14t-9.5 -33q-6 -21 -15 -49q-8 -2 -18.5 -3.5t-25.5 -4.5t-36.5 -8t-51.5 -12q-43 -9 -77 -19 t-67 -23.5t-69.5 -31.5t-84.5 -43z" />
<glyph unicode="&#x643;" horiz-adv-x="1083" arabic-form="initial" d="M0 0q-12 1 -29.5 6t-34 16.5t-28.5 30.5t-12 48q1 31 12 51.5t26.5 32t33.5 16.5t32 5q107 2 205.5 12.5t179.5 33.5t140.5 60.5t89.5 93.5q-36 100 -93.5 187t-129.5 166t-155.5 151.5t-172.5 144.5l46 184q273 120 489 213q92 40 180 77.5t157 66.5t111.5 45.5 t43.5 14.5l-35 -184l-767 -339q52 -54 108 -115t108 -128.5t95.5 -143.5t70 -160.5t32 -179.5t-18.5 -200q-53 -53 -124 -92t-157.5 -64.5t-188 -37.5t-214.5 -12z" />
<glyph unicode="&#x643;" horiz-adv-x="1171" arabic-form="medial" d="M1187 207v-207h-17q-51 -4 -101 12t-97 44t-90 65t-81 76t-69.5 76t-55.5 66q-2 -17 -5 -37t-7.5 -41.5t-9 -42.5t-8.5 -39q-53 -53 -117 -87.5t-143 -54.5t-175 -28t-211 -9q-11 0 -28.5 5t-34 16.5t-29 31t-12.5 48.5q1 31 12 51.5t27 32.5t33.5 16.5t31.5 4.5 q108 0 204.5 9.5t175 31t136 56.5t87.5 85q-32 110 -86 200.5t-124.5 170t-154 151t-172.5 143.5l47 192q271 117 485 209q61 26 120.5 51.5t113.5 48t100 41.5t80 32.5t53 20t20 5.5q1 -6 -4 -35.5t-12 -62.5q-8 -39 -19 -86l-758 -334l92 -98t90 -101.5t85 -110t77 -122.5 q78 -141 162 -236t158.5 -153t131.5 -82.5t82 -24.5h17z" />
<glyph unicode="&#x644;" horiz-adv-x="1465" arabic-form="final" d="M1244 8q-2 -147 -34.5 -256t-104.5 -180.5t-188.5 -107t-286.5 -35.5q-111 3 -200.5 31t-153.5 82.5t-98.5 136.5t-34.5 193.5t36.5 252.5t115.5 315l67 -42q-27 -67 -51.5 -139t-42 -141.5t-25 -132t-1.5 -110.5q2 -19 8.5 -42.5t21.5 -48.5t41 -49t68 -43.5t103 -33 t146 -16.5q145 -6 239 19t149.5 75.5t79.5 124.5t31 167.5t2.5 204.5t-5.5 235q-2 25 -5 78.5t-7 124.5t-8.5 154t-8.5 168t-8 166.5t-7.5 150t-5.5 118t-2 69.5l183 149q2 0 3 -1q5 -4 6 -46.5t0.5 -111t-2 -157.5t-1.5 -186q-2 -211 -1.5 -402t-3.5 -375q-1 -55 16.5 -89 t46.5 -51q9 -5 25.5 -9t35 -6.5t36.5 -4t30 -1.5h32v-206h-32q-32 0 -63.5 5.5t-58.5 16t-47.5 25t-30.5 32.5q-2 -18 -2.5 -36t-1.5 -35z" />
<glyph unicode="&#x644;" horiz-adv-x="564" arabic-form="initial" d="M-105 98q0 27 9 47t23.5 33.5t33.5 20.5t39 7h26h43q28 0 64 3t72 10t68 18.5t53 27.5q7 22 10.5 50t4.5 57.5t1 57.5v51q-3 122 -8.5 261.5t-11.5 276t-12.5 259t-11.5 211.5q47 44 85 78q16 15 32 28.5t29 24t22 16.5t11 5q5 -2 5.5 -13t0.5 -18q2 -210 1.5 -385.5 t-2 -327t-4.5 -285.5t-7 -260q-2 -69 -32.5 -132t-80 -111.5t-114.5 -77.5t-136 -30l-61 -1h-47q-23 0 -42 8t-33 21.5t-22 31t-8 37.5z" />
<glyph unicode="&#x644;" horiz-adv-x="652" arabic-form="medial" d="M-109 98q0 27 9 47t23.5 33.5t33.5 20.5t39 7h69q28 0 64 3t72 10t68 18.5t53 27.5q7 22 10.5 50t4.5 57.5t1 57.5v51q-3 122 -8.5 261.5t-11.5 276t-12.5 259t-11.5 211.5q47 44 85 78q16 15 32 28.5t29 24t22 16.5t11 5q5 -2 5.5 -13t0.5 -18q2 -204 0.5 -381.5 t-4 -330.5t-5 -282.5t-3.5 -237.5q2 -72 45 -118.5t123 -54.5h34v-205h-44q-35 0 -71 11.5t-68.5 31t-60 45.5t-46.5 54q-21 -29 -53 -55.5t-69.5 -46t-77.5 -30.5t-75 -9l-61 -1h-47q-23 0 -42 8t-33 21.5t-22 31t-8 37.5z" />
<glyph unicode="&#x645;" horiz-adv-x="1362" arabic-form="final" d="M785 759q39 0 78.5 -25t77 -69.5t71 -104.5t62.5 -130q47 -115 120.5 -169.5t164.5 -54.5h12v-206h-12q-71 0 -122.5 17t-86.5 42t-54 52t-25 47l-120 -163q-11 -9 -45.5 -5.5t-85 17t-113.5 34.5t-130.5 48.5t-135.5 59t-129 64.5l-1 -3q-2 -1 1.5 -41.5t10.5 -106 t17 -149t20.5 -171.5t20.5 -173t17.5 -153.5t11 -113t1.5 -51.5q-4 -9 -19.5 -32t-35 -47.5t-37.5 -46.5t-27 -29v1q-1 18 -7.5 71t-17.5 128.5t-24.5 166.5t-28 183t-28.5 179.5t-25 156.5t-18 113t-8 49q27 86 66 148q16 26 37 49.5t46 38t54.5 17.5t62.5 -10l84 126 t91.5 120.5t99.5 90t109 35.5zM1016 206q-16 76 -45.5 147t-63 125t-67.5 87t-59 33q-39 1 -72 -20t-62.5 -56.5t-57 -82t-55.5 -96.5q34 -19 81.5 -39.5t99.5 -39t103.5 -33.5t93.5 -23.5t70 -10t34 8.5z" />
<glyph unicode="&#x645;" horiz-adv-x="1094" arabic-form="initial" d="M914 185q3 52 -7 102.5t-28 96.5t-42.5 85t-50.5 68t-51.5 45t-46.5 16q-39 0 -69 -19.5t-58 -54t-56.5 -81t-63.5 -100.5q17 -19 57 -40.5t90.5 -42t106 -38.5t102 -29.5t79 -14.5t38.5 7zM692 759q38 0 78 -22.5t78 -62.5t70.5 -96t55 -123t31.5 -142.5t1 -154.5 l-148 -171q-11 -9 -47 -5.5t-85.5 15.5t-107 31.5t-112 44t-99.5 52t-69 55.5q-35 -63 -74 -98.5t-81 -53t-86 -22.5t-88 -6h-9q-6 0 -23 3.5t-35 14t-32.5 31t-14.5 54.5q2 40 18.5 61.5t36.5 30.5q22 11 50 11h60q23 0 46 1t32 3q37 8 76 52t81 105t87 130t94 127 t102.5 96.5t113.5 38.5z" />
<glyph unicode="&#x645;" horiz-adv-x="1269" arabic-form="medial" d="M926 206q-16 76 -46 147t-64.5 125t-68.5 87t-59 33q-39 1 -69 -18.5t-58 -54t-56.5 -81.5t-63.5 -101q18 -16 59.5 -35t93.5 -37t108.5 -34t104.5 -26t80.5 -12.5t38.5 7.5zM692 759q39 0 78.5 -25t77 -69.5t71 -104.5t62.5 -130q47 -115 120.5 -169.5t164.5 -54.5h12 v-206h-12q-53 0 -102 17t-88.5 42t-65.5 52t-32 47l-120 -163q-11 -9 -47 -6.5t-85.5 14t-107 30t-112 42t-99.5 50.5t-69 55q-35 -63 -74 -98.5t-81 -53t-86 -22.5t-88 -6h-9q-6 0 -23 3.5t-35 14t-32.5 31t-14.5 54.5q2 40 18.5 61.5t36.5 30.5q22 11 50 11h60q23 0 46 1 t32 3q37 8 76 52t81 105t87 130t94 127t102.5 96.5t113.5 38.5z" />
<glyph unicode="&#x646;" horiz-adv-x="1625" arabic-form="final" d="M1238 621q3 0 4 -1v-1v2q12 -19 24 -49t28.5 -68.5t38.5 -84.5t54 -97q33 -54 90.5 -79t143.5 -37h16v-206h-16q-97 13 -166.5 38t-93.5 53q1 -15 1.5 -30.5t0.5 -30.5q0 -150 -43.5 -270t-128 -204t-210.5 -129t-292 -45q-119 0 -218 29t-170.5 88.5t-112.5 150 t-45 213.5t31.5 279t117.5 347l69 -38q-34 -108 -63 -211.5t-41 -195.5t-1 -170t57.5 -136t135 -93t231.5 -40q152 1 256 30t171 79t102 117t48 145q-17 55 -35.5 118.5t-37.5 125t-38 117t-35 94.5q30 52 56 93q11 18 22 35t20.5 30.5t17 22t11.5 9.5zM917 633l-158 -158 l-159 159l158 158z" />
<glyph unicode="&#x646;" horiz-adv-x="640" arabic-form="initial" d="M422 879q4 1 20 -28.5t35 -82.5t36.5 -126.5t25 -160t-0.5 -182.5t-39 -194q-30 -27 -82 -46.5t-115 -32.5t-133 -19.5t-136 -6.5h-35q-27 0 -50 11q-20 9 -37 30t-19 61q2 39 18.5 60t36.5 31q23 11 51 13h31q32 0 74.5 2.5t87 6.5t88 9t78.5 10.5t57 11t25 10.5 q3 21 -4.5 56.5t-21 77.5t-31 87.5t-34.5 85.5t-32 70.5t-22 44.5q33 55 60 99q12 19 23 37t20.5 32t16 23t8.5 10zM465 1200l-158 -158l-159 159l158 158z" />
<glyph unicode="&#x646;" horiz-adv-x="772" arabic-form="medial" d="M-103 103q0 23 9 42t23.5 32.5t33.5 21t39 7.5q82 1 166 12q36 4 71.5 11.5t65.5 18t52 25t30 33.5q2 34 -5.5 79t-16.5 87q-11 48 -25 99q35 37 63 66q24 25 45 44.5t25 16.5l3.5 -17.5t8.5 -46.5t10.5 -67.5t10 -80.5t7 -85.5t1.5 -82.5q28 -29 71 -53q37 -20 94.5 -38 t121.5 -21h9v-206h-9q-48 0 -106.5 13t-105.5 35.5t-83 52t-59 62.5q-21 -32 -71.5 -61.5t-113.5 -52t-129 -36t-98 -13.5h-33q-20 0 -39 7t-33.5 20.5t-23.5 32.5t-9 43zM535 1011l-158 -158l-159 159l158 158z" />
<glyph unicode="&#x647;" horiz-adv-x="1045" arabic-form="final" d="M1059 206v-206h-39q-84 4 -139.5 32.5t-90 69.5t-52.5 90.5t-26 95.5l-133 -137q-6 -2 -45.5 0.5t-95 10t-119.5 20.5t-120 33q-12 16 -22.5 45t-18.5 64t-13 73t-5.5 72.5t3.5 61.5t15 40q18 21 50 47.5t72.5 55.5t86 59t89.5 58.5t84 54t70 45.5q-3 19 -5.5 41.5 t-5.5 48.5l164 145q24 -215 43 -389q8 -74 16.5 -147t16 -133t13 -101.5t8.5 -53.5q4 -18 16 -35.5t33.5 -31t54 -21.5t78.5 -8h17zM217 493q1 -42 39 -69.5t104 -45t155 -27t191 -14.5l-74 413q-62 -31 -128 -63t-124 -64.5t-101.5 -65t-61.5 -64.5z" />
<glyph unicode="&#x647;" horiz-adv-x="1335" arabic-form="initial" d="M-104 102q0 24 8.5 43t23 32.5t33.5 21t39 7.5h62q57 0 103 4.5t79 9.5q38 6 68 15q-31 31 -51 76.5t-28.5 96.5t-5 103.5t19.5 96.5q13 36 32 64t38.5 49t37 35.5t29.5 24.5l-84 36l100 202q4 -1 40.5 -15.5t93.5 -40.5t129 -62t147.5 -80.5t149 -95.5t133 -107 t100 -116t49.5 -121q-8 -42 -16.5 -86.5t-20 -87.5t-26 -83.5t-33.5 -75.5q-47 -27 -105 -35.5t-118 -4.5t-118.5 16.5t-107 26.5t-83 27t-45.5 17q-20 -15 -54 -27.5t-74.5 -23t-85.5 -19t-88 -14t-81.5 -8.5t-65.5 -3h-120q-21 0 -40 7.5t-33.5 21t-22.5 32t-8 41.5z M597 714q-45 3 -90.5 -9.5t-84.5 -37.5t-68 -60t-41 -78q11 -47 34.5 -82.5t57 -62t75.5 -45.5t90 -32q5 1 20 10.5t31.5 23t32 28t21.5 26.5q19 33 17.5 76.5t-15.5 88t-36 85.5t-44 69zM1146 231q11 43 -4.5 85t-47 80.5t-73 72.5t-82.5 61.5t-77 47t-55 29.5 q9 -27 13.5 -58t4 -63t-6 -63.5t-16.5 -58.5q-4 -12 -15.5 -29.5t-25.5 -34.5q-16 -19 -35 -39q22 -8 57.5 -18t76.5 -19t84.5 -15t82.5 -7t70.5 5.5t48.5 23.5z" />
<glyph unicode="&#x647;" horiz-adv-x="985" arabic-form="medial" d="M0 206q15 0 38.5 1t50 2.5t53.5 3.5t50 3q5 82 22 160t40.5 148.5t52 131.5t58 109.5t56.5 82t49 49.5q24 -8 49.5 -34.5t50 -65t46 -86.5t37 -99t22 -102.5t2.5 -97.5q-29 -88 -60.5 -156.5t-75 -117.5t-102 -78.5t-139.5 -39.5q16 -71 48.5 -134.5t70.5 -113.5 t76.5 -84.5t67.5 -47.5q-3 28 -8.5 66t-4.5 83t13.5 95t44.5 102q20 32 44.5 62.5t51.5 56.5t55.5 45.5t55.5 30.5q27 12 63.5 17.5t63.5 7.5h55v-206h-55q-62 0 -112 -20.5t-89 -52t-66.5 -69t-45.5 -72.5q0 -35 4.5 -69.5t20 -66.5t46.5 -61.5t85 -54.5l-89 -165 q-107 41 -194 107t-152 149.5t-106.5 182t-57.5 204.5q-30 -3 -62 -6q-27 -2 -60 -4t-64 -2q-20 0 -38.5 6t-33 19t-23.5 32t-10 45q0 22 9 41.5t24 33t34 21.5t38 8zM465 659q-19 -7 -47.5 -45t-55.5 -97.5t-47.5 -136.5t-21.5 -163q47 6 96 16t91 28.5t72.5 46.5t41.5 69 q-3 24 -11 62t-23 78.5t-38.5 79t-56.5 62.5z" />
<glyph unicode="&#x648;" horiz-adv-x="942" arabic-form="final" d="M613 0q-75 0 -151 12.5t-137.5 47.5t-100.5 98t-40 164q0 30 9 73.5t27 92t45.5 96.5t63.5 86t81 62t98 24h2q58 -4 103.5 -30.5t80.5 -68.5t61 -96.5t43.5 -114.5t28 -122t15.5 -118h114v-206h-117q-8 -108 -49.5 -196.5t-100 -157.5t-126.5 -119.5t-130 -83 t-109.5 -47.5t-65.5 -14q-5 0 -7 1q-21 10 -54 27.5t-65.5 36t-59 34.5t-34.5 24q-9 8 -4 11.5t7 4.5q151 43 271.5 98t207 117.5t138.5 129.5t67 134h-112zM734 206q-4 17 -11 49.5t-19.5 71.5t-32 80t-47 75t-65 55.5t-86.5 21.5h-2q-39 0 -70 -15t-55 -38t-41 -50.5 t-27.5 -53.5t-15 -46.5t-2.5 -29.5q4 -24 24 -46t55 -38.5t86 -26t118 -9.5h191z" />
<glyph unicode="&#x649;" horiz-adv-x="1596" arabic-form="final" d="M1606 0h-68.5t-77.5 2.5t-85 9.5t-90 21q84 -42 127 -75t57 -52l-12 -168q-15 -43 -66.5 -98.5t-133 -106t-191 -88t-240.5 -44.5q-111 -6 -217 6t-194 50t-153.5 106.5t-95.5 175t-19.5 255t73.5 347.5l15.5 46.5t21.5 61t24.5 64t23.5 55.5l69 -36q-12 -37 -29 -88.5 t-34 -108.5q-13 -52 -24 -112.5t-14.5 -124.5t2.5 -127.5t28 -121t61.5 -105t102 -80t151 -46.5t208.5 -3q115 9 213 29.5t171.5 47.5t117.5 58.5t52 62.5q-17 15 -65 46t-116 68.5t-149 76.5t-162 72q-3 0 2.5 12.5t15 31.5t21 40.5t22.5 40.5t19.5 31.5t10.5 12.5 q105 -14 189.5 -22t158.5 -11.5t141.5 -4.5t137.5 -1v-206z" />
<glyph unicode="&#x64a;" horiz-adv-x="1598" arabic-form="final" d="M1606 0h-68.5t-77.5 2.5t-85 9.5t-90 21q84 -42 127 -75t57 -52l-12 -168q-15 -43 -66.5 -98.5t-133 -106t-191 -88t-240.5 -44.5q-111 -6 -217 6t-194 50t-153.5 106.5t-95.5 175t-19.5 255t73.5 347.5l15.5 46.5t21.5 61t24.5 64t23.5 55.5l69 -36q-12 -37 -29 -88.5 t-34 -108.5q-13 -52 -24 -112.5t-14.5 -124.5t2.5 -127.5t28 -121t61.5 -105t102 -80t151 -46.5t208.5 -3q115 9 213 29.5t171.5 47.5t117.5 58.5t52 62.5q-17 15 -65 46t-116 68.5t-149 76.5t-162 72q-3 0 2.5 12.5t15 31.5t21 40.5t22.5 40.5t19.5 31.5t10.5 12.5 q105 -14 189.5 -22t158.5 -11.5t141.5 -4.5t137.5 -1v-206zM573 -1102l-148 149l147 149l150 -150zM947 -1103l-150 149l149 149l148 -150z" />
<glyph unicode="&#x64a;" horiz-adv-x="755" arabic-form="initial" d="M529 870q4 1 20 -27t35 -79.5t36.5 -122.5t25 -155.5t-0.5 -179.5t-39 -193q-30 -27 -87 -48t-132.5 -35.5t-165.5 -22t-186 -7.5h-35q-27 0 -50 11q-20 9 -37 30t-19 61q2 39 18.5 60t36.5 31q23 11 51 13h31q112 0 205 6.5t160.5 15.5t106.5 19t43 17q4 18 -3 51.5 t-20.5 74t-31.5 84t-35.5 82.5t-32.5 69l-22 44q33 55 60 99q12 19 23 37t20.5 32t16 23t8.5 10zM176 -535l-148 149l147 149l150 -150zM550 -536l-150 149l149 149l148 -150z" />
<glyph unicode="&#x64a;" horiz-adv-x="900" arabic-form="medial" d="M-105 103q0 23 9 42t23.5 32.5t33.5 21t39 7.5q122 1 216 12q36 4 76.5 11.5t70.5 18t52 25t30 33.5q2 34 -5.5 79t-16.5 87q-11 48 -25 99q35 37 63 66q24 25 45 44.5t25 16.5l3.5 -17.5t8.5 -46.5t10.5 -67.5t10 -80.5t7 -85.5t1.5 -82.5q28 -29 71 -53 q37 -20 99.5 -38t156.5 -21h9v-206h-9q-78 0 -141.5 13t-110.5 35.5t-83 52t-59 62.5q-21 -32 -71.5 -61.5t-118.5 -52t-139 -36t-133 -13.5h-43q-20 0 -39 7t-33.5 20.5t-23.5 32.5t-9 43zM203 -526l-148 149l147 149l150 -150zM577 -527l-150 149l149 149l148 -150z" />
<glyph unicode="&#xd;" horiz-adv-x="602" />
<glyph unicode=" "  horiz-adv-x="613" />
<glyph unicode="&#x09;" horiz-adv-x="613" />
<glyph unicode="&#xa0;" horiz-adv-x="613" />
<glyph unicode="!" horiz-adv-x="596" d="M398 104q0 -23 -9 -42.5t-24 -34t-35 -23t-42 -8.5q-44 0 -76 32t-32 76q0 23 8.5 43t23 35t34 23.5t42.5 8.5q45 0 77 -32q33 -32 33 -78zM365 1463q0 -13 1.5 -47.5t3 -81.5t3 -102.5t1.5 -109.5t-2 -103t-7 -84q-6 -36 -12 -91.5t-12 -119t-11.5 -129.5t-9.5 -124 t-7 -102.5t-4 -65.5h-46q-1 18 -4 60t-7.5 99t-10.5 123t-13 131.5t-14 124t-13 101.5q-5 34 -7.5 82t-3 101.5t0 108t2 101t2.5 80.5t1 47z" />
<glyph unicode="&#x22;" horiz-adv-x="741" d="M144 947l-50 279v240h205v-240l-45 -279h-110zM475 947l-49 279v240h205v-240l-48 -279h-108z" />
<glyph unicode="#" horiz-adv-x="1197" d="M103 -25l87 426h-169v149h199l74 363h-273v149h303l87 429h150l-87 -429h315l87 429h151l-87 -429h173v-149h-203l-75 -363h278v-149h-308l-87 -426h-150l86 426h-314l-87 -426h-150zM370 550h314l75 363h-315z" />
<glyph unicode="$" horiz-adv-x="1149" d="M510 -211v180q-134 16 -220 60q-85 44 -146 141q-60 96 -71 237l181 34q21 -145 74 -213q77 -97 182 -107v573q-110 21 -227 86q-87 48 -133 132.5t-46 193.5q0 193 136 311q92 80 270 98v86h106v-86q157 -15 249 -92q118 -97 142 -269l-186 -28q-16 106 -66.5 162.5 t-138.5 74.5v-519q69 -17 113.5 -30t66.5 -23q123 -54 185 -148.5t62 -225.5q0 -187 -119 -312t-308 -134v-182h-106zM510 1365q-104 -16 -166 -84q-60 -68 -60 -161q0 -92 51.5 -154t174.5 -99v498zM616 121q106 14 173 91q69 78 69 193q0 99 -49 157q-49 61 -193 107v-548 z" />
<glyph unicode="%" horiz-adv-x="1707" d="M50 1114q0 158 79 267q80 110 229 110q138 0 228 -99q91 -97 91 -289q0 -186 -92 -287q-91 -100 -225 -100t-222 99q-88 98 -88 299zM363 1367q-67 0 -112 -58q-44 -59 -44 -213q0 -141 45 -199q45 -57 111 -57q69 0 112 58q45 58 45 212q0 142 -45 199q-45 58 -112 58z M364 -54l802 1545h146l-799 -1545h-149zM998 344q0 158 79 267q80 110 230 110q138 0 228 -99q91 -97 91 -289q0 -186 -92 -287q-91 -100 -226 -100q-134 0 -222 99q-88 100 -88 299zM1312 597q-68 0 -113 -58q-44 -59 -44 -213q0 -140 45 -198t111 -58q70 0 113 58 q45 58 45 212q0 142 -45 199q-45 58 -112 58z" />
<glyph unicode="&#x26;" horiz-adv-x="1428" d="M973 173q-179 -198 -421 -198q-225 0 -357 152q-107 125 -107 277q0 271 349 438q-98 113 -132 185q-33 70 -33 137q0 132 103 229q104 98 261 98q150 0 245 -92q96 -92 96 -221q0 -209 -277 -357l263 -335q44 87 70 204l187 -40q-48 -192 -130 -316q51 -67 108 -123 t121 -102l-121 -143q-110 70 -225 207zM607 937q117 69 151 121q35 53 35 115q0 75 -48 122q-47 48 -118 48q-72 0 -122 -47q-48 -47 -48 -115t70 -151zM530 724q-146 -88 -197 -162t-51 -147q0 -88 71 -185q70 -96 201 -96q81 0 167 50t139 131z" />
<glyph unicode="'" horiz-adv-x="403" d="M136 947l-46 274v245h205v-245l-48 -274h-111z" />
<glyph unicode="(" horiz-adv-x="902" d="M364 398q0 -308 265 -682q39 -57 62 -90.5t29 -44.5l-44 -25q-225 154 -355 364q-139 223 -142 472v12q3 249 142 472q33 52 69.5 100t79.5 92.5t94 87t112 84.5l45 -31q-6 -11 -27.5 -43t-64.5 -86q-68 -85 -118 -173.5t-82.5 -176t-48.5 -171.5t-16 -161z" />
<glyph unicode=")" horiz-adv-x="885" d="M527 395q0 77 -16 161t-48.5 171.5t-82.5 176t-118 173.5l-95 130l48 30q61 -42 112 -84.5t94 -87t79.5 -92.5t69.5 -100q137 -223 142 -472v-12q-5 -249 -142 -472q-130 -210 -355 -364l-45 25l92 135q265 374 265 682z" />
<glyph unicode="*" horiz-adv-x="1707" d="M710 72q-1 69 24.5 143t73.5 154h26q45 -80 66 -153t22 -139q0 -26 -17.5 -46t-38.5 -33q-25 -16 -56 -26q-27 11 -48 26q-18 13 -34 31.5t-18 42.5zM240 554q13 29 29 52q14 20 30.5 36t36.5 16q140 0 296 -96v-27q-76 -43 -149 -65.5t-141 -22.5q-26 0 -44.5 16.5 t-31.5 36.5q-15 24 -26 54zM801 737q-44 79 -66.5 150.5t-22.5 139.5q0 26 17 44.5t37 31.5q24 15 54 25q29 -14 52 -29q20 -14 36 -30.5t16 -35.5q0 -72 -24.5 -145t-72.5 -151h-26zM1293 656q25 0 44 -17t32 -37q15 -24 25 -54q-14 -29 -29 -51q-14 -20 -30.5 -35.5 t-35.5 -15.5q-144 0 -298 96v26q158 88 292 88zM554 967q96 -102 141 -277l-18 -18q-90 23 -156.5 59.5t-113.5 82.5q-13 12 -14 36t2 48q4 28 12 61q34 11 63 16q25 5 49 4t35 -12zM1230 815q-105 -99 -275 -141l-17 18q48 182 140 270q14 11 38.5 12.5t48.5 -1.5 q28 -4 60 -12q11 -32 16 -61q4 -25 3 -49.5t-14 -35.5zM958 434q91 -26 156.5 -63t111.5 -81q14 -14 16 -38.5t-2 -48.5q-4 -28 -15 -60q-33 -9 -62 -13q-25 -4 -48.5 -3t-33.5 12q-48 52 -83.5 120t-57.5 155zM699 412q-26 -91 -60.5 -158.5t-83.5 -112.5 q-13 -11 -37.5 -12.5t-48.5 2.5q-28 4 -60 13q-9 30 -13 56q-4 23 -2.5 46.5t13.5 37.5q29 34 85 66q95 55 189 79zM817 447q-21 0 -40.5 8t-33.5 22.5t-22.5 33.5t-8.5 40q0 22 8 41t22.5 33t33.5 22.5t41 8.5t41.5 -8.5t34 -22.5t23 -33t8.5 -41q0 -21 -8.5 -40 t-23.5 -33.5t-34.5 -22.5t-40.5 -8z" />
<glyph unicode="+" horiz-adv-x="1102" d="M972 310h-373v-373h-139v373h-376v139h376v375h139v-375h373v-139z" />
<glyph unicode="," horiz-adv-x="518" d="M79 126q0 19 8 44t26.5 47.5t49.5 38t77 16.5q42 1 80 -19.5t63 -52.5q23 -29 33.5 -66.5t8.5 -79.5q-3 -56 -17.5 -102.5t-38.5 -85.5t-56 -72t-71 -61h-102q32 24 58.5 55t47 66.5t34.5 74t20 77.5q-22 -7 -47 -12t-43 -5q-64 0 -97.5 34t-33.5 103z" />
<glyph unicode="-" horiz-adv-x="1113" d="M965 311h-888v138h888v-138z" />
<glyph unicode="." horiz-adv-x="551" d="M397 114q0 -46 -35 -81q-34 -34 -81 -34q-48 0 -82 34t-34 81t34 81q35 35 82 35q46 0 81 -35t35 -81z" />
<glyph unicode="/" horiz-adv-x="818" d="M637 1465l-346 -1576h-121l347 1576h120z" />
<glyph unicode="0" horiz-adv-x="1165" d="M85 723q0 259 53 418q54 159 159.5 245t265.5 86q118 0 207 -47t147 -138q57 -87 91 -218q33 -128 33 -346q0 -256 -53 -417q-54 -159 -158.5 -245t-266.5 -86q-211 0 -333 152q-145 182 -145 596zM270 723q0 -361 84 -481q86 -119 209 -119q124 0 208 120q85 119 85 480 q0 363 -85 481q-84 119 -210 119q-125 0 -198 -105q-93 -134 -93 -495z" />
<glyph unicode="1" horiz-adv-x="950" d="M687 0h-180v1147q-32 -31 -74.5 -62t-96.5 -62q-105 -62 -189 -93v174q76 35 141.5 78t122.5 94q113 101 160 196h116v-1472z" />
<glyph unicode="2" horiz-adv-x="1160" d="M1031 173v-173h-969q-2 65 21 125q38 100 118 195q42 48 100 103.5t136 118.5q120 99 200.5 176t122.5 134q84 115 84 217q0 106 -77 180t-199 74q-130 0 -208 -78q-77 -77 -79 -216l-185 19q9 103 45.5 182.5t97 133t144.5 81t189 27.5q211 0 334 -117t123 -290 q0 -88 -36 -173q-35 -84 -120 -179q-42 -48 -111 -112t-166 -146q-81 -69 -133 -114.5t-75 -70.5q-46 -47 -76 -97h719z" />
<glyph unicode="3" horiz-adv-x="1165" d="M266 411q15 -77 42 -131.5t63.5 -89t82 -51t99.5 -16.5q127 0 214 88q88 88 88 218q0 124 -81 204q-81 81 -206 81q-49 0 -127 -20l20 158q9 -1 16.5 -1.5t12.5 -0.5q115 0 207 60t92 185q0 100 -67 164q-68 65 -173 65t-175 -66t-90 -198l-180 32q33 181 150 280 q116 100 291 100q121 0 221 -52q102 -52 154 -140q54 -89 54 -189q0 -96 -51 -173.5t-151 -123.5q131 -30 202.5 -124t71.5 -237q0 -192 -140 -326q-139 -133 -354 -133q-194 0 -321 115t-145 298z" />
<glyph unicode="4" horiz-adv-x="1149" d="M662 0v351h-636v165l669 950h147v-950h198v-165h-198v-351h-180zM662 516v661l-459 -661h459z" />
<glyph unicode="5" horiz-adv-x="1187" d="M274 400q10 -69 35.5 -121t62 -86.5t83.5 -52t101 -17.5q130 0 220 98q90 97 90 260q0 154 -87 243q-86 89 -226 89q-88 0 -157.5 -39.5t-109.5 -102.5l-169 22l142 753h729v-172h-585l-79 -394q133 92 277 92q192 0 324 -133q132 -134 132 -342q0 -198 -116 -344 q-141 -178 -385 -178q-200 0 -327 112q-126 112 -144 297z" />
<glyph unicode="6" horiz-adv-x="1192" d="M840 1093q-24 105 -68 154q-74 77 -180 77q-87 0 -151 -48q-43 -31 -76 -76t-58 -105q-50 -119 -51 -339q66 100 159.5 147.5t196.5 47.5q180 0 306 -133q127 -131 127 -342q0 -139 -60 -257t-163 -181t-236 -63q-225 0 -367 165q-142 166 -142 546q0 425 157 618 q136 168 369 168q174 0 283 -97q111 -97 133 -268zM284 475q0 -93 39 -178q20 -42 48.5 -74.5t62.5 -54.5t72 -33.5t77 -11.5q113 0 196 92q82 91 82 250q0 152 -81 239q-81 88 -204 88q-122 0 -207 -88q-85 -86 -85 -229z" />
<glyph unicode="7" horiz-adv-x="1149" d="M97 1274v173h949v-140q-141 -150 -278 -396q-69 -125 -121.5 -251t-90.5 -257q-54 -185 -69 -403h-185q3 172 68 418t186 472q61 115 125.5 210.5t133.5 173.5h-718z" />
<glyph unicode="8" horiz-adv-x="1176" d="M362 795q-112 42 -166 117.5t-54 181.5q0 160 115 269t306 109q193 0 309 -112q117 -111 117 -271q0 -103 -53.5 -177.5t-162.5 -116.5q136 -45 206 -142t70 -234q0 -189 -133 -316q-134 -128 -350 -128t-350 128q-133 129 -133 321q0 144 72 240t207 131zM326 1100 q0 -104 67 -170t174 -66q103 0 170 65q67 66 67 161q0 98 -69 166q-68 68 -170 68q-104 0 -171 -66q-68 -66 -68 -158zM268 423q0 -77 36 -149q37 -72 109 -112q72 -39 155 -39q128 0 213 83q84 82 84 211t-87 215q-85 85 -216 85q-127 0 -211 -84q-83 -85 -83 -210z" />
<glyph unicode="9" horiz-adv-x="1144" d="M285 355q22 -123 84 -177.5t159 -54.5q84 0 146 38t102 101q40 64 67 172t27 220v15t-1 21q-55 -87 -148 -140q-94 -53 -202 -53q-182 0 -308 132t-126 348q0 222 131 359q132 136 330 136q142 0 261 -77q118 -76 180 -220t62 -412q0 -283 -61 -448q-61 -167 -181 -253.5 t-283 -86.5q-171 0 -281 95q-108 95 -131 269zM849 986q0 154 -83 246q-82 91 -198 91q-120 0 -209 -98t-89 -254q0 -140 84 -228q85 -87 209 -87q125 0 205 87q81 88 81 243z" />
<glyph unicode=":" horiz-adv-x="518" d="M366 679q0 -45 -35 -80q-34 -34 -81 -34q-48 0 -82 34t-34 80q0 49 34 82q34 34 82 34t82 -34q34 -33 34 -82zM366 119q0 -46 -35 -81q-35 -33 -81 -33q-48 0 -82 33q-34 34 -34 81t34 81q35 35 82 35q46 0 81 -35t35 -81z" />
<glyph unicode=";" horiz-adv-x="537" d="M86 129q0 20 12.5 44.5t29.5 42.5q22 26 51.5 35.5t65.5 9.5q41 0 74 -16.5t56 -47.5q21 -28 30.5 -63.5t9.5 -77.5q0 -105 -44 -183t-131 -126q-12 -6 -28.5 -10t-31.5 -5q-14 -2 -23.5 1t-9.5 8l-3 -7l3 3l40 39v-1q56 49 84 104t28 133q-29 -9 -48.5 -13t-36.5 -4 q-60 0 -94 35.5t-34 98.5zM372 796q0 -29 -11 -54.5t-29.5 -44t-44 -29.5t-54.5 -11t-54 11t-44.5 29.5t-30.5 44t-11 54.5t11 54.5t30.5 44.5t44.5 30t54 11t54.5 -11t44 -30t29.5 -44.5t11 -54.5z" />
<glyph unicode="&#x3c;" horiz-adv-x="1283" d="M112 641v168l971 410v-179l-770 -316l770 -319v-179z" />
<glyph unicode="=" horiz-adv-x="1102" d="M977 465h-888v140h888v-140zM977 146h-888v138h888v-138z" />
<glyph unicode="&#x3e;" horiz-adv-x="1197" d="M1083 641l-971 -415v179l769 319l-769 316v179l971 -410v-168z" />
<glyph unicode="?" horiz-adv-x="1069" d="M908 1200q0 -85 -41 -144q-50 -69 -135 -69q-52 0 -88 33q-35 32 -35 83q0 56 39 92q42 39 98 39q45 0 90 -27q2 93 -76 153q-75 57 -174 57q-89 0 -154 -68q-63 -68 -63 -151q-3 -41 3 -78t20.5 -76t37 -82.5t53.5 -98.5q28 -55 51 -95t41.5 -74t34.5 -66.5t30 -72.5 v-211h-87v180q-11 12 -36 38t-56 58t-64 66t-61 63t-46.5 48.5t-20.5 21.5q-108 123 -108 275q0 83 27.5 153t84.5 130q57 63 128.5 94.5t157.5 31.5q144 0 245 -83q104 -87 104 -220zM700 103q0 -23 -9 -42.5t-24 -34.5t-35 -23.5t-42 -8.5q-45 0 -79 32q-32 32 -32 77 q0 23 9 43t24 35t35 24t43 9q45 0 77 -33q33 -32 33 -78z" />
<glyph unicode="@" horiz-adv-x="2072" d="M1161 163q-33 -38 -69.5 -68.5t-76 -52t-80.5 -33.5t-81 -12q-90 0 -173 52q-85 53 -137 160t-52 237q0 159 81 318q83 161 203 240q122 80 235 80q87 0 166 -45.5t136 -138.5l34 155h179l-144 -671q-30 -140 -30 -155q0 -27 20.5 -46.5t49.5 -19.5q54 0 139 61 q113 79 180 214q67 134 67 278q0 166 -86 312q-85 145 -255 232t-374 87q-234 0 -428 -110t-300 -314q-106 -203 -106 -438q0 -246 106 -422q106 -177 308 -261q201 -85 447 -85q263 0 439 88q177 88 265 214h181q-51 -105 -175 -214t-295 -172q-170 -64 -412 -64 q-223 0 -410 57q-93 28 -173.5 72t-145.5 99.5t-115.5 122t-83.5 141.5q-84 189 -84 408q0 246 100 465q122 271 346.5 415t544.5 144q248 0 445 -102q198 -100 312 -302q97 -172 97 -376q0 -290 -204 -515q-181 -202 -398 -202q-69 0 -111.5 21t-62.5 60q-13 25 -19 86z M677 434q0 -136 65 -213q64 -76 149 -76q57 0 118 33.5t118 99.5t93 167q36 102 36 204q0 135 -68 211q-68 75 -164 75q-64 0 -120 -32.5t-110 -104.5q-26 -36 -47.5 -79.5t-37.5 -95.5q-32 -105 -32 -189z" />
<glyph unicode="A" horiz-adv-x="1455" d="M-3 0l563 1466h209l600 -1466h-221l-171 444h-613l-161 -444h-206zM420 602h497l-153 406q-35 93 -61 168.5t-43 135.5q-29 -143 -79 -280z" />
<glyph unicode="B" horiz-adv-x="1315" d="M150 0v1466h550q168 0 269 -45q102 -43 159 -137q58 -91 58 -193q0 -47 -13 -92t-38.5 -85t-64 -74.5t-89.5 -59.5q66 -20 117.5 -53.5t87 -79.5t53.5 -102t18 -120q0 -102 -44 -192q-44 -89 -107 -136q-64 -48 -160 -72.5t-237 -24.5h-559zM344 850h317q128 0 185 17 q149 44 149 201q0 72 -35 128t-100 76q-65 21 -223 21h-293v-443zM344 173h365q97 0 132 7q68 12 112 40q45 28 74 81.5t29 123.5q0 82 -42 142q-42 61 -117 85q-72 25 -214 25h-339v-504z" />
<glyph unicode="C" horiz-adv-x="1493" d="M1398 465q-62 -240 -220 -365t-387 -125q-238 0 -386 96q-148 97 -226 280q-77 184 -77 393q0 229 87 399q88 170 249 259q163 89 356 89q221 0 370 -112q151 -113 209 -315l-191 -45q-51 160 -148 233t-244 73q-169 0 -283 -81q-112 -81 -159 -218q-46 -135 -46 -281 q0 -188 54 -327q56 -140 170 -208q115 -69 249 -69q81 0 151 23.5t125 70.5t94 116.5t59 162.5z" />
<glyph unicode="D" horiz-adv-x="1471" d="M158 0v1466h505q171 0 261 -21q127 -29 215 -105q117 -99 174 -250.5t57 -348.5q0 -168 -39 -296.5t-100 -213.5q-62 -84 -134 -133q-72 -48 -174 -73t-236 -25h-529zM352 173h313q144 0 227 27t132 76q69 69 107.5 185t38.5 283q0 231 -76 353q-75 124 -183 166 q-78 30 -251 30h-308v-1120z" />
<glyph unicode="E" horiz-adv-x="1391" d="M162 0v1466h1060v-173h-866v-449h811v-172h-811v-499h900v-173h-1094z" />
<glyph unicode="F" horiz-adv-x="1278" d="M168 0v1466h989v-173h-795v-454h688v-173h-688v-666h-194z" />
<glyph unicode="G" horiz-adv-x="1578" d="M844 575v172l621 1v-544q-288 -229 -607 -229q-215 0 -393 92q-177 94 -266 268q-90 175 -90 391q0 213 89 399q45 93 110.5 162t147.5 114t179.5 67.5t207.5 22.5q161 0 287 -52q64 -26 114 -61t88 -82t65 -106.5t46 -133.5l-175 -48q-33 112 -82 176q-24 32 -60 58 t-80 44.5t-95.5 28.5t-106.5 10q-102 0 -180 -23.5t-136.5 -64t-98.5 -93.5t-64 -111q-56 -138 -56 -295q0 -197 67 -328t197 -196q128 -64 274 -64q126 0 246 48q60 25 105.5 50.5t76.5 53.5v273h-431z" />
<glyph unicode="H" horiz-adv-x="1450" d="M164 0v1466h194v-602h762v602h194v-1466h-194v691h-762v-691h-194z" />
<glyph unicode="I" horiz-adv-x="634" d="M191 0v1466h194v-1466h-194z" />
<glyph unicode="J" horiz-adv-x="1047" d="M234 440q8 -169 63 -230q56 -62 155 -62q73 0 126 33q54 35 73 91q20 60 20 184v1010h194v-999q0 -185 -45 -285q-45 -102 -140.5 -154.5t-226.5 -52.5q-193 0 -295.5 111t-98.5 330z" />
<glyph unicode="K" horiz-adv-x="1493" d="M150 0v1466h194v-727l728 727h263l-615 -594l642 -872h-256l-522 742l-240 -234v-508h-194z" />
<glyph unicode="L" horiz-adv-x="1213" d="M150 0v1466h194v-1293h722v-173h-916z" />
<glyph unicode="M" horiz-adv-x="1707" d="M152 0v1466h292l347 -1038q24 -73 41.5 -127t28.5 -90q13 40 32.5 98.5l45.5 136.5l351 1020h261v-1466h-187v1227l-426 -1227h-175l-424 1248v-1248h-187z" />
<glyph unicode="N" horiz-adv-x="1476" d="M156 0v1466h199l770 -1151v1151h186v-1466h-199l-770 1152v-1152h-186z" />
<glyph unicode="O" horiz-adv-x="1638" d="M99 714q0 366 196 571q196 207 506 207q203 0 366 -97q162 -97 248 -271t86 -393q0 -224 -90 -399q-90 -176 -255 -267q-165 -90 -356 -90q-207 0 -370 100t-247 273q-84 172 -84 366zM299 711q0 -266 142 -418q143 -152 358 -152q219 0 360 154q142 154 142 437 q0 180 -61 312q-60 133 -177 207q-116 74 -261 74q-207 0 -355 -142q-148 -141 -148 -472z" />
<glyph unicode="P" horiz-adv-x="1380" d="M158 0v1466h553q144 0 223 -14q107 -18 181 -69q73 -50 117 -141q45 -92 45 -200q0 -186 -119 -317q-119 -129 -430 -129h-376v-596h-194zM352 769h379q188 0 267 70t79 197q0 46 -12 86t-34.5 71.5t-53.5 53.5t-69 33q-48 13 -181 13h-375v-524z" />
<glyph unicode="Q" horiz-adv-x="1648" d="M1269 157q133 -92 249 -136l-57 -135q-158 57 -315 180q-163 -91 -360 -91q-199 0 -361 96q-161 96 -250 270q-87 174 -87 392t88 395q88 178 250 271q163 93 364 93q203 0 366 -97q162 -95 248 -270q86 -174 86 -391q0 -363 -221 -577zM842 405q166 -46 277 -140 q171 156 171 469q0 179 -61 311q-59 132 -177 206q-116 74 -261 74q-217 0 -360 -149t-143 -443q0 -286 141 -439q142 -153 362 -153q104 0 196 39q-92 58 -192 84z" />
<glyph unicode="R" horiz-adv-x="1541" d="M161 0v1466h650q197 0 298 -40q102 -39 163 -139t61 -221q0 -156 -101 -263q-102 -108 -312 -136q78 -38 117 -73q43 -39 83 -87.5t78 -107.5l255 -399h-244l-194 305q-64 101 -110 163t-82.5 98t-68 52.5t-66.5 25.5q-31 7 -108 7h-225v-651h-194zM355 819h417 q133 0 208 27q75 28 114 88t39 132q0 104 -76 171q-74 67 -238 67h-464v-485z" />
<glyph unicode="S" horiz-adv-x="1358" d="M275 487q14 -111 60 -181q48 -71 148 -114q99 -43 225 -43q85 -1 153 18.5t116 54t72.5 80t22.5 96.5q0 69 -39.5 120.5t-132.5 86.5q-29 11 -94 29t-167 42q-102 25 -172 47.5t-111 44.5q-106 55 -157 136t-51 183q0 111 63 207q63 98 184 147q123 50 269 50 q161 0 287 -53q63 -26 111 -65t81 -88.5t51 -108.5t21 -123l-186 -14q-15 139 -101.5 210t-255.5 71q-175 0 -257 -65q-80 -65 -80 -155q0 -79 57 -130q55 -51 292 -105q236 -52 325 -93q129 -60 189.5 -150t60.5 -208t-67 -221q-67 -102 -193 -161q-125 -57 -282 -57 q-200 0 -334 58q-135 59 -211 174q-75 115 -80 264z" />
<glyph unicode="T" horiz-adv-x="1278" d="M531 0v1293h-483v173h1162v-173h-485v-1293h-194z" />
<glyph unicode="U" horiz-adv-x="1423" d="M1120 1466h194v-847q0 -219 -50 -351q-49 -128 -181 -212q-131 -81 -342 -81q-206 0 -337 71t-187 205q-56 136 -56 368v847h194v-846q0 -189 35 -282q36 -91 122 -139.5t212 -48.5q214 0 305 97t91 373v846z" />
<glyph unicode="V" horiz-adv-x="1396" d="M577 0l-568 1466h210l381 -1065q23 -64 42 -123.5t35 -116.5q17 60 36.5 120t42.5 120l396 1065h198l-574 -1466h-199z" />
<glyph unicode="W" horiz-adv-x="1949" d="M414 0l-389 1466h199l223 -961q18 -76 33.5 -150.5t28.5 -149.5q55 233 66 271l279 990h234l210 -742q79 -276 114 -519q14 70 32 149t41 170l230 942h195l-402 -1466h-187l-309 1117q-20 70 -31 113t-15 59q-11 -51 -22 -94t-21 -78l-311 -1117h-198z" />
<glyph unicode="X" horiz-adv-x="1433" d="M9 0l567 764l-500 702h231l266 -376q42 -59 71.5 -103.5t46.5 -76.5q25 40 53.5 81.5t62.5 85.5l295 389h211l-515 -691l555 -775h-240l-369 523q-16 23 -31.5 47.5t-32.5 50.5q-25 -40 -42 -67.5t-28 -42.5l-368 -511h-233z" />
<glyph unicode="Y" horiz-adv-x="1417" d="M571 0v621l-565 845h236l289 -442q40 -63 77 -124t72 -124q33 58 72.5 122.5t87.5 136.5l284 431h226l-585 -845v-621h-194z" />
<glyph unicode="Z" horiz-adv-x="1321" d="M41 0v180l751 939q40 51 78 94t74 80h-818v173h1050v-173l-823 -1017l-89 -103h936v-173h-1159z" />
<glyph unicode="[" horiz-adv-x="666" d="M139 -407v1873h397v-149h-217v-1575h217v-149h-397z" />
<glyph unicode="\" horiz-adv-x="687" d="M425 -25l-425 1516h145l424 -1516h-144z" />
<glyph unicode="]" horiz-adv-x="591" d="M436 -407h-397v149h217v1575h-217v149h397v-1873z" />
<glyph unicode="^" horiz-adv-x="977" d="M239 690h-185l353 801h145l355 -801h-181l-247 597z" />
<glyph unicode="_" horiz-adv-x="1154" d="M-31 -407v130h1193v-130h-1193z" />
<glyph unicode="`" horiz-adv-x="607" d="M465 1194h-145l-231 280h241z" />
<glyph unicode="a" horiz-adv-x="1138" d="M828 131q-101 -86 -193 -120q-93 -35 -198 -35q-175 0 -269 85t-94 219q0 60 20.5 110t55.5 89t82 66t100 40q52 13 160 27q215 25 321 62q1 19 1 30.5v16.5q0 110 -51 155q-68 61 -205 61q-127 0 -188 -45q-60 -44 -89 -157l-176 24q24 114 79 182q55 70 158.5 107.5 t241.5 37.5q134 0 221 -32q42 -16 73 -36t52 -44.5t34.5 -55t21.5 -67.5q9 -47 9 -166v-240q0 -126 3 -205t8 -113q12 -67 46 -127h-188q-28 55 -36 131zM813 533q-49 -20 -122 -37t-172 -31q-110 -16 -157 -36q-46 -20 -71 -58t-25 -86q0 -36 13.5 -67t40.5 -53.5t67 -35 t93 -12.5q52 0 99 12t86 34t69.5 53.5t49.5 70.5q29 63 29 180v66z" />
<glyph unicode="b" horiz-adv-x="1160" d="M301 0h-167v1466h180v-523q114 143 291 143q99 0 185.5 -39.5t143.5 -111.5t89 -172.5t32 -215.5q0 -274 -135 -422q-135 -149 -324 -149t-295 157v-133zM299 539q0 -191 52 -276q85 -139 230 -139q118 0 204 102q86 104 86 306q0 207 -83 307q-83 99 -199 99 q-119 0 -204 -103q-86 -103 -86 -296z" />
<glyph unicode="c" horiz-adv-x="1111" d="M1005 366q-29 -183 -149 -287q-118 -103 -293 -103q-218 0 -351 142q-132 142 -132 409q0 172 57 301q57 128 173 193q118 65 254 65q174 0 283.5 -87t140.5 -249l-175 -27q-25 108 -88 161.5t-154 53.5q-135 0 -221 -98q-85 -97 -85 -308q0 -214 82 -311t214 -97 q106 0 177 65t90 200z" />
<glyph unicode="d" horiz-adv-x="1154" d="M824 0v134q-101 -158 -297 -158q-128 0 -234 70t-164.5 195.5t-58.5 288.5q0 158 53 288q52 130 159 199q106 69 237 69q97 0 171 -40t122 -106v526h179v-1466h-167zM255 530q0 -204 86 -305t203 -101t200 96q83 98 83 295q0 218 -84 320t-207 102q-120 0 -201 -98 q-80 -98 -80 -309z" />
<glyph unicode="e" horiz-adv-x="1187" d="M1048 319q-45 -164 -163 -253.5t-304 -89.5q-233 0 -370 143q-136 143 -136 403q0 267 138 416q138 148 358 148q213 0 348 -145q135 -146 135 -408v-20t-1 -28h-792q10 -175 99 -268q88 -93 222 -93q99 0 169 52t111 166zM864 633q-12 133 -68 201q-86 104 -223 104 q-123 0 -209 -83q-84 -83 -93 -222h593z" />
<glyph unicode="f" horiz-adv-x="698" d="M178 0v922h-159v140h159v113q0 108 19 159q13 35 35.5 64t56 49.5t79 32t104.5 11.5q76 0 168 -18l-27 -157q-28 5 -54.5 7.5t-51.5 2.5q-81 0 -116 -35q-34 -34 -34 -131v-98h207v-140h-207v-922h-179z" />
<glyph unicode="g" horiz-adv-x="1111" d="M277 -114q10 -80 61 -118q68 -50 183 -50q125 0 193 50t92 140q7 28 10.5 85.5t2.5 145.5q-118 -139 -294 -139q-219 0 -339 158q-120 157 -120 379q0 154 55 280q55 130 159 199.5t246 69.5q188 0 310 -152v128h166v-918q0 -248 -51 -351q-51 -105 -159.5 -164.5 t-269.5 -59.5q-189 0 -307 86q-117 86 -113 257zM251 550q0 -208 83 -305q82 -96 208 -96q124 0 208 95q84 96 84 300q0 195 -87 294q-86 99 -208 99q-120 0 -204 -98t-84 -289z" />
<glyph unicode="h" horiz-adv-x="1111" d="M135 0v1466h180v-526q126 146 318 146q117 0 205 -47q87 -46 124 -128q38 -84 38 -238v-673h-180v673q0 135 -58.5 196.5t-165.5 61.5q-81 0 -151 -42q-35 -21 -59.5 -48t-40.5 -64t-23 -85t-7 -111v-581h-180z" />
<glyph unicode="i" horiz-adv-x="494" d="M136 1259v207h180v-207h-180zM136 0v1062h180v-1062h-180z" />
<glyph unicode="j" horiz-adv-x="456" d="M134 1257v209h180v-209h-180zM-60 -259q56 -14 85 -14q55 0 82 37q27 36 27 182v1116h180v-1120q0 -197 -51 -273q-64 -100 -216 -100q-75 0 -141 19z" />
<glyph unicode="k" horiz-adv-x="1138" d="M136 0v1466h180v-836l426 432h233l-406 -394l447 -668h-222l-351 543l-127 -122v-421h-180z" />
<glyph unicode="l" horiz-adv-x="472" d="M131 0v1466h180v-1466h-180z" />
<glyph unicode="m" horiz-adv-x="1707" d="M135 0v1062h161v-149q51 78 133.5 125.5t188.5 47.5q118 0 193.5 -49t106.5 -137q126 186 328 186q159 0 243.5 -87t84.5 -270v-729h-179v669q0 108 -18 155q-17 48 -62.5 77t-108.5 29q-113 0 -186 -75q-74 -74 -74 -238v-617h-180v690q0 121 -44 180.5t-144 59.5 q-77 0 -141 -40q-65 -41 -93 -117q-29 -78 -29 -222v-551h-180z" />
<glyph unicode="n" horiz-adv-x="1127" d="M135 0v1062h162v-151q117 175 338 175q95 0 176 -35q81 -34 121 -89.5t56 -133.5q5 -25 7.5 -68.5t2.5 -106.5v-653h-180v646q0 110 -21 164q-21 55 -74.5 87.5t-125.5 32.5q-116 0 -199 -73q-83 -74 -83 -277v-580h-180z" />
<glyph unicode="o" horiz-adv-x="1138" d="M68 531q0 294 164 437q136 118 334 118q218 0 358 -144q139 -142 139 -396q0 -204 -62 -323q-62 -118 -179 -182q-118 -65 -256 -65q-223 0 -361 143q-137 143 -137 412zM253 531q0 -203 89 -306q89 -101 224 -101q134 0 223 102q89 103 89 311q0 197 -90 298 q-89 102 -222 102q-135 0 -224 -101t-89 -305z" />
<glyph unicode="p" horiz-adv-x="1165" d="M135 -407v1469h164v-138q58 81 131 121.5t177 40.5q137 0 240 -70q105 -71 157 -198q53 -129 53 -279q0 -162 -59 -294q-58 -130 -170 -200q-111 -69 -234 -69q-91 0 -162 38t-117 96v-517h-180zM298 525q0 -205 83 -303t201 -98q119 0 205 101q86 103 86 315 q0 203 -84 304q-83 101 -199 101t-204 -108q-88 -106 -88 -312z" />
<glyph unicode="q" horiz-adv-x="1101" d="M812 -407v520q-43 -60 -118 -98q-75 -39 -160 -39q-190 0 -326 151t-136 414q0 161 55 287q55 127 161 192q106 66 232 66q198 0 310 -166v142h162v-1469h-180zM257 534q0 -204 86 -308q85 -102 206 -102q116 0 198 97q83 98 83 297q0 213 -88 319q-87 107 -205 107 q-117 0 -199 -100q-81 -99 -81 -310z" />
<glyph unicode="r" horiz-adv-x="811" d="M133 0v1062h162v-161q62 113 114 149t116 36q91 0 185 -58l-62 -167q-66 39 -132 39q-60 0 -106.5 -35.5t-66.5 -98.5q-30 -96 -30 -210v-556h-180z" />
<glyph unicode="s" horiz-adv-x="1036" d="M241 345q15 -108 83 -164.5t192 -56.5q123 0 184 50q60 51 60 119q0 61 -53 96q-37 23 -184 61q-197 49 -275 86q-76 37 -115.5 101.5t-39.5 142.5q0 72 32 132t89 100q21 15 50 28.5t64 23.5t74.5 16t81.5 6q124 0 219 -36t140 -98q46 -63 62 -164l-176 -24 q-12 82 -69 128t-163 46q-124 0 -177 -41t-53 -96q0 -35 22 -63q22 -29 69 -48q14 -5 53.5 -16.5t105.5 -29.5q192 -51 266 -84q76 -32 119 -93.5t43 -154.5q0 -90 -53 -170q-52 -79 -150.5 -122.5t-224.5 -43.5q-207 0 -315.5 86t-138.5 255z" />
<glyph unicode="t" horiz-adv-x="650" d="M554 2q-74 -16 -136 -16q-99 0 -152 31t-76 81q-22 50 -22 213v611h-132v140h132v263l179 108v-371h181v-140h-181v-621q0 -77 9 -99q10 -22 31.5 -35t61.5 -13q15 0 34.5 1.5t44.5 5.5z" />
<glyph unicode="u" horiz-adv-x="1133" d="M831 0v156q-125 -180 -337 -180q-94 0 -176 36q-81 36 -120.5 90.5t-55.5 133.5q-11 55 -11 168v658h180v-589q0 -71 3 -118t8 -72q17 -72 72 -112t136 -40t152 41q72 43 100 113q30 72 30 208v569h180v-1062h-161z" />
<glyph unicode="v" horiz-adv-x="1058" d="M430 0l-404 1062h190l228 -636q19 -52 35.5 -105t32.5 -109q12 42 28.5 92t38.5 110l236 648h185l-402 -1062h-168z" />
<glyph unicode="w" horiz-adv-x="1509" d="M331 0l-325 1062h186l169 -613l63 -228l55 219l169 622h185l159 -616l53 -203l61 205l182 614h175l-332 -1062h-187l-169 636l-41 181l-215 -817h-188z" />
<glyph unicode="x" horiz-adv-x="1074" d="M15 0l388 552l-359 510h225l163 -249q23 -35 41.5 -65t32.5 -54q43 66 81 117l179 251h215l-367 -500l395 -562h-221l-218 330l-58 89l-279 -419h-218z" />
<glyph unicode="y" horiz-adv-x="1052" d="M107 -240q57 -16 103 -16q60 0 96 20t59 56q8 14 22 47t33 87q2 8 6.5 19t9.5 25l-403 1064h194l221 -615q22 -59 41 -120t36 -126q16 63 34 122.5t40 119.5l227 619h180l-404 -1080q-32 -88 -57.5 -148t-43.5 -93q-48 -90 -109.5 -131t-148.5 -41q-53 0 -116 22z" />
<glyph unicode="z" horiz-adv-x="1058" d="M40 0v146l676 776q-116 -6 -203 -6h-433v146h868v-119l-575 -674l-111 -123q121 9 227 9h491v-155h-940z" />
<glyph unicode="{" horiz-adv-x="985" d="M69 636q65 29 120 58t96 64t66.5 79.5t31.5 104.5q0 7 -4.5 32t-11 59.5t-14.5 75.5t-14.5 80.5t-11.5 73.5t-5 56q-1 30 12 75t39.5 97t65.5 105.5t90.5 99.5t114.5 79.5t138 45.5v-47q-294 -67 -294 -302q0 -11 4 -42t10.5 -72.5t14 -88.5t14 -89t10.5 -74t4 -44 q0 -71 -25 -130.5t-72 -113.5t-115 -105t-154 -105q85 -55 153.5 -102.5t116.5 -97.5t74 -107t26 -129q0 -10 -3 -33t-8 -53t-11 -65.5t-12.5 -70.5t-12.5 -67.5t-10 -57.5q-15 -93 6.5 -158.5t65.5 -109.5t102 -69.5t116 -38.5v-48q-68 7 -128.5 38t-111 75.5t-91 98 t-68 106.5t-42.5 100.5t-15 80.5q0 12 4.5 43.5t10.5 72t14 86t14 86.5t10.5 71.5t4.5 42.5q3 31 -15.5 67t-58 73.5t-100 75t-141.5 70.5v48z" />
<glyph unicode="|" horiz-adv-x="494" d="M188 -431v1922h157v-1922h-157z" />
<glyph unicode="}" horiz-adv-x="907" d="M776 588q-81 -33 -141.5 -70.5t-100 -75t-58 -73.5t-15.5 -67q0 -11 4.5 -42t10.5 -72t14 -86.5t14 -86.5t10.5 -72t4.5 -43q0 -33 -15 -80.5t-43 -100.5t-68 -106.5t-91 -98t-111.5 -75.5t-128.5 -38v48q58 13 116.5 38.5t102 70t65 110t6.5 158.5q-4 25 -10 57.5 t-12 67.5l-12 70t-11 65t-8 53t-3 33q0 72 25.5 129t73.5 107t116.5 97.5t154.5 102.5q-86 54 -154 105t-115.5 105t-72 113.5t-24.5 130.5q0 12 4 44t10.5 74t14 89t14 88.5t10.5 72.5t4 42q0 235 -295 302v47q74 -12 137.5 -45.5t115 -79.5t91 -99.5t65.5 -105.5 t39.5 -97.5t12.5 -74.5q-1 -22 -5.5 -56t-11.5 -73.5t-14.5 -80.5t-14 -75.5t-11 -59.5t-4.5 -32q6 -60 31 -104.5t66.5 -79.5t96.5 -64t120 -58v-48z" />
<glyph unicode="~" horiz-adv-x="1187" d="M87 762q106 120 278 120q60 0 126 -18q67 -17 188 -69q35 -14 60.5 -23.5t42.5 -14.5q34 -9 70 -9q65 0 134 39q69 38 124 98v-212q-64 -60 -129.5 -87t-147.5 -27q-30 0 -58.5 3.5t-56.5 10.5q-27 7 -70 24t-103 43q-120 53 -197 53q-65 0 -121 -28q-57 -27 -140 -108 v205z" />
<glyph unicode="&#xa1;" horiz-adv-x="628" d="M447 1062v-205h-207v205h207zM400 697l55 -776v-325h-223v325l52 776h116z" />
<glyph unicode="&#xa2;" horiz-adv-x="1111" d="M522 128q33 -9 61 -9q103 0 179 71q76 70 93 199l179 -20q-33 -185 -157 -291q-122 -106 -291 -106q-47 0 -103 14l-118 -395l-112 32l115 398q-114 55 -188 183q-73 128 -73 322q0 179 58 305q58 127 175 192q116 64 238 64q18 0 43 -2t57 -6l113 387l110 -32l-112 -387 q99 -43 152 -115.5t74 -181.5l-175 -27q-26 112 -96 171zM638 940q-32 3 -50 3q-83 0 -154 -46q-71 -45 -106.5 -140.5t-35.5 -221.5q0 -133 31.5 -223t91.5 -135z" />
<glyph unicode="&#xa3;" horiz-adv-x="1213" d="M711 809v-148h-284q19 -42 19 -88q0 -88 -41 -184t-137 -198q78 22 144 22q42 0 88.5 -6t98.5 -19q87 -20 144.5 -30.5t88.5 -10.5q72 0 192 56l58 -165q-91 -39 -143 -51q-50 -12 -100 -12q-21 0 -42 2t-43 6q-26 4 -130 36q-51 16 -84 25.5t-48 12.5q-23 4 -47 6t-47 2 q-36 0 -75 -6.5t-78.5 -18.5t-77.5 -29.5t-71 -38.5l-69 173q48 26 88.5 64t74.5 87q67 98 67 241q0 59 -17 124h-196v148h154q-33 113 -42 163q-9 52 -9 101q0 208 154 325q124 93 300 93q182 0 298 -100q118 -99 145 -279l-179 -27q-15 120 -90 189q-74 69 -178 69 q-112 0 -185 -72q-73 -70 -73 -172q0 -112 57 -290h315z" />
<glyph unicode="&#xa4;" horiz-adv-x="1197" d="M74 1097l115 119l139 -139q106 72 237 72q132 0 237 -72l139 139l116 -119l-139 -136q71 -110 71 -235q0 -126 -71 -236l139 -136l-116 -119l-139 140q-104 -73 -237 -73q-131 0 -237 73l-139 -140l-115 119l139 136q-71 110 -71 236q0 125 71 235zM305 726 q0 -108 76 -184t183 -76t183 76t76 184q0 107 -76 183q-75 76 -183 76q-107 0 -183 -76t-76 -183z" />
<glyph unicode="&#xa5;" horiz-adv-x="1192" d="M477 0v325h-415v139h415v143h-415v148h341l-406 711h200l290 -516q48 -87 76 -154q11 26 32 67t50 96l274 507h214l-405 -711h341v-148h-412v-143h412v-139h-412v-325h-180z" />
<glyph unicode="&#xa6;" horiz-adv-x="585" d="M345 1491v-790h-157v790h157zM345 360v-791h-157v791h157z" />
<glyph unicode="&#xa7;" horiz-adv-x="1149" d="M324 -44q28 -130 89 -182q62 -53 166 -53q103 0 159 52q58 52 58 122q0 50 -36 94q-61 75 -340 245q-150 93 -207 142q-58 52 -95 122t-37 146q0 96 60 174q59 77 165 109q-71 68 -100 125.5t-29 122.5q0 128 100 222t265 94q188 0 292.5 -88.5t125.5 -258.5l-187 -19 q-11 61 -29 103t-44.5 67.5t-61.5 36.5t-80 11q-91 0 -149 -50q-56 -50 -56 -109q0 -53 36 -96q57 -69 306 -220q79 -48 131.5 -83t80.5 -58q72 -60 105 -124t33 -139q0 -114 -73 -193q-42 -47 -154 -93q159 -120 159 -281q0 -87 -50 -166q-50 -80 -144 -120 q-95 -42 -203 -42q-96 0 -172 24.5t-131.5 71t-89 113.5t-44.5 152zM728 244q75 38 111 88.5t36 98.5q0 58 -52 120t-225 169q-137 84 -204 138q-81 -46 -115.5 -91.5t-34.5 -102.5q0 -64 46 -120q47 -58 207 -152q67 -40 124.5 -76.5t106.5 -71.5z" />
<glyph unicode="&#xa8;" horiz-adv-x="741" d="M61 1270v205h188v-205h-188zM434 1270v205h188v-205h-188z" />
<glyph unicode="&#xa9;" horiz-adv-x="1557" d="M758 1491q189 0 371 -98q181 -98 282 -279q101 -182 101 -378t-100 -375q-99 -179 -279 -280q-179 -99 -375 -99t-376 99q-179 101 -279 280t-100 375t101 378q102 182 283 279q182 98 371 98zM758 1366q-159 0 -310 -82q-149 -80 -235 -233q-85 -151 -85 -315 q0 -162 83 -313q84 -149 234 -233q151 -83 313 -83t313 83q150 84 233 233q83 151 83 313q0 164 -85 315q-85 153 -235 233q-151 82 -309 82zM1123 578q-30 -125 -128 -200q-98 -74 -236 -74q-177 0 -286 114q-110 115 -110 316q-2 100 27.5 179.5t83.5 135t129 84t164 27.5 q133 0 221 -63.5t120 -172.5l-119 -29q-30 75 -88.5 114t-137.5 39q-115 0 -190 -82q-74 -83 -74 -235q0 -153 70 -232q70 -78 183 -78q91 0 158 52t90 141z" />
<glyph unicode="&#xaa;" horiz-adv-x="821" d="M548 853q-122 -107 -256 -107q-114 0 -179 61q-66 61 -66 158q0 70 35 118.5t110 74.5q34 10 99 21l147 22q36 7 60 12t36 8q-2 72 -14 94q-13 24 -48 41.5t-95 17.5q-79 0 -118 -32.5t-48 -92.5l-137 34q12 90 88 148q76 60 217 60q165 0 232 -61t67 -181v-240l-1 -61 q0 -134 41 -184h-148q-10 20 -15.5 42t-6.5 47zM533 1104q-53 -14 -192 -36q-90 -14 -117 -39q-28 -25 -28 -64q0 -42 33.5 -70.5t96.5 -28.5q73 0 127 39t72 96q4 10 5.5 35.5t2.5 67.5z" />
<glyph unicode="&#xab;" horiz-adv-x="1160" d="M340 528l259 -456h-146l-319 456l319 456h148zM727 528l264 -456h-152l-313 456l313 456h152z" />
<glyph unicode="&#xac;" horiz-adv-x="1240" d="M1082 424h-170v438h-798v168h968v-606z" />
<glyph unicode="&#xad;" horiz-adv-x="687" d="M65 440v181h553v-181h-553z" />
<glyph unicode="&#xae;" horiz-adv-x="1562" d="M758 1491q189 0 371 -98q181 -98 282 -279q101 -182 101 -378t-100 -375q-99 -179 -279 -280q-179 -99 -375 -99t-376 99q-179 101 -279 280t-100 375t101 378q102 182 283 279q182 98 371 98zM758 1366q-159 0 -310 -82q-149 -80 -235 -233q-85 -151 -85 -315 q0 -162 83 -313q84 -149 234 -233q151 -83 313 -83t313 83q150 84 233 233q83 151 83 313q0 164 -85 315q-85 153 -235 233q-151 82 -309 82zM427 319v812h279q141 0 207 -23q64 -23 102 -78q38 -56 38 -119q0 -90 -64 -155q-64 -67 -168 -74q44 -18 69 -43q49 -47 120 -161 l99 -159h-160l-72 128q-86 153 -137 189q-35 28 -105 28h-77v-345h-131zM558 776h159q115 0 155 34q42 34 42 90q0 35 -20 64q-20 30 -56 43q-36 14 -131 14h-149v-245z" />
<glyph unicode="&#xaf;" horiz-adv-x="1149" d="M-31 1566v129h1193v-129h-1193z" />
<glyph unicode="&#xb0;" horiz-adv-x="795" d="M128 1214q0 115 81 196q82 81 196 81q116 0 197 -81t81 -196t-82 -197q-81 -81 -196 -81q-114 0 -196 81q-81 81 -81 197zM237 1214q0 -71 49 -120t120 -49q69 0 118 49q50 50 50 120q0 69 -50 119t-118 50q-70 0 -120 -50q-49 -49 -49 -119z" />
<glyph unicode="&#xb1;" horiz-adv-x="1154" d="M477 260v403h-399v167h399v399h170v-399h399v-167h-399v-403h-170zM1046 0h-968v168h968v-168z" />
<glyph unicode="&#xb2;" horiz-adv-x="746" d="M25 733q6 56 47 114q32 43 83.5 90.5t123.5 99.5q144 105 171 135q37 40 37 84q0 48 -34.5 79t-103.5 31q-66 0 -99 -24q-32 -23 -53 -90l-151 16q29 111 100.5 163.5t205.5 52.5q150 0 221 -59t71 -144q0 -83 -59 -159q-46 -56 -205 -171q-42 -31 -71.5 -55t-46.5 -42 h386v-121h-623z" />
<glyph unicode="&#xb3;" horiz-adv-x="746" d="M179 944q19 -58 52 -82q43 -30 102 -30q70 0 114 39q43 39 43 94q0 50 -36 80t-123 30q-6 0 -14 -0.5t-19 -1.5q-7 -1 -12.5 -1h-9.5l22 110q40 0 69.5 7.5t49 21.5t28.5 33t9 40q0 37 -29.5 63t-89.5 26q-56 0 -87.5 -22t-54.5 -80l-143 23q40 105 103 148q63 42 183 42 q144 0 209 -54q66 -53 66 -133q0 -55 -35.5 -98t-102.5 -62q90 -22 131.5 -72t41.5 -119q0 -93 -79 -162q-80 -69 -225 -69q-140 0 -214 55.5t-95 158.5z" />
<glyph unicode="&#xb4;" horiz-adv-x="682" d="M222 1194l133 280h236l-220 -280h-149z" />
<glyph unicode="&#xb5;" horiz-adv-x="1122" d="M1018 1062v-1062h-161v126q-53 -81 -103 -110q-71 -41 -163 -41q-83 0 -147 33q-47 25 -106 99v-514h-178v1469h178v-450q0 -243 26 -318q26 -72 84.5 -114t134.5 -42q79 0 143 44q63 44 89 113q26 72 26 314v453h177z" />
<glyph unicode="&#xb6;" horiz-adv-x="1203" d="M405 -407v1045q-187 10 -296 121q-108 112 -108 285q0 193 120 307q121 115 353 115h633v-173h-144v-1700h-170v1700h-223v-1700h-165z" />
<glyph unicode="&#xb7;" horiz-adv-x="601" d="M238 637v205h205v-205h-205z" />
<glyph unicode="&#xb8;" horiz-adv-x="644" d="M268 23h134l-33 -107q85 -10 128 -52.5t43 -94.5q0 -75 -72 -132q-71 -58 -217 -58q-83 0 -144 12l11 117q32 -2 55.5 -3t38.5 -1q94 0 132 26q29 20 29 49q-2 13 -7 24.5t-20.5 20.5t-45.5 15t-84 7z" />
<glyph unicode="&#xb9;" horiz-adv-x="950" d="M331 733v554q-103 -82 -224 -113v123q31 10 65.5 28.5t72.5 44.5q76 52 123 114h108v-751h-145z" />
<glyph unicode="&#xba;" horiz-adv-x="821" d="M373 1491q145 0 236 -100q92 -101 92 -276q0 -174 -92 -275q-91 -100 -235 -100q-145 0 -237 98t-92 273q0 180 91 280t237 100zM373 1358q-41 0 -74 -14t-56.5 -43t-36.5 -75.5t-13 -110.5q0 -63 13.5 -109t37.5 -75.5t57 -44t72 -14.5q40 0 73 14t57 44t37 77t13 113 q0 61 -13.5 106t-37.5 74t-57 43.5t-72 14.5z" />
<glyph unicode="&#xbb;" horiz-adv-x="1036" d="M791 528l-261 456h148l319 -456l-319 -456h-147zM404 528l-264 456h151l314 -456l-314 -456h-151z" />
<glyph unicode="&#xbc;" horiz-adv-x="1777" d="M252 -57l1102 1548h156l-1101 -1548h-157zM331 733v554q-103 -82 -224 -113v123q31 10 65.5 28.5t72.5 44.5q76 52 123 114h108v-751h-145zM1430 -31v154h-383v123l405 474h122v-489h104v-108h-104v-154h-144zM1430 231v263l-230 -263h230z" />
<glyph unicode="&#xbd;" horiz-adv-x="1766" d="M228 -57l1101 1548h157l-1101 -1548h-157zM331 733v554q-103 -82 -224 -113v123q31 10 65.5 28.5t72.5 44.5q76 52 123 114h108v-751h-145zM1049 -31q6 56 48 113q62 87 206 191q144 103 171 135q37 40 37 84q0 48 -34.5 78.5t-103.5 30.5q-66 0 -99 -24q-32 -23 -53 -89 l-151 15q15 56 39.5 97t61.5 67.5t88 39.5t117 13q150 0 221 -59t71 -144q0 -83 -59 -159q-23 -28 -73.5 -71t-130.5 -101q-86 -63 -119 -96h386v-121h-623z" />
<glyph unicode="&#xbe;" horiz-adv-x="1782" d="M252 -57l1101 1548h157l-1101 -1548h-157zM179 944q19 -58 52 -82q43 -30 102 -30q70 0 114 39q43 39 43 94q0 50 -36 80t-120 30q-50 -3 -58 -3l22 110q40 0 69.5 7.5t49 21.5t28.5 33t9 40q0 37 -29.5 63t-89.5 26q-56 0 -87.5 -22t-54.5 -80l-143 23q40 105 103 148 q63 42 183 42q144 0 209 -54q66 -53 66 -133q0 -55 -35.5 -98t-102.5 -62q90 -22 131.5 -72t41.5 -119q0 -93 -79 -162q-80 -69 -225 -69q-140 0 -214 55.5t-95 158.5zM1429 -31v154h-382v123l404 474h123v-489h104v-108h-104v-154h-145zM1429 231v263l-229 -263h229z" />
<glyph unicode="&#xbf;" horiz-adv-x="1192" d="M733 1062v-205h-205v205h205zM721 701q1 -17 1 -30v-21q0 -111 -30 -187q-11 -29 -28.5 -58.5t-42.5 -58.5q-18 -22 -50 -52.5t-80 -72.5q-93 -83 -121 -131q-27 -50 -27 -107q0 -106 82 -185t201 -79q114 0 191.5 72t101.5 224l184 -21q-12 -102 -50 -180.5 t-98.5 -132.5t-142.5 -82t-183 -28q-217 0 -344 117t-127 283q0 97 44 177q46 81 176 196q45 40 73.5 68.5t42.5 47.5q27 38 39 85q13 48 15 156h173z" />
<glyph unicode="&#xd7;" horiz-adv-x="1144" d="M161 409l315 315l-314 314l122 122l314 -314l313 313l120 -121l-312 -313l314 -314l-122 -122l-314 314l-315 -315z" />
<glyph unicode="&#xf7;" horiz-adv-x="1160" d="M459 922v205h205v-205h-205zM1046 639h-968v168h968v-168zM459 319v205h205v-205h-205z" />
<glyph unicode="&#x152;" horiz-adv-x="2115" d="M1983 173v-173h-862v212q-135 -237 -400 -237q-302 0 -456 232q-136 205 -136 528q0 322 142 539t450 217q264 0 400 -223v198h831v-173h-650v-448h599v-172h-599v-500h681zM720 1334q-100 0 -197 -65q-96 -65 -145 -197.5t-49 -351.5q0 -304 115 -446q116 -143 276 -143 q161 0 275 142q115 142 115 472q0 305 -116 447q-115 142 -274 142z" />
<glyph unicode="&#x153;" horiz-adv-x="1954" d="M978 175q-152 -199 -396 -199q-225 0 -363 143q-137 143 -137 399q0 170 58 302q58 133 178 200q120 66 266 66q139 0 240 -58q103 -57 154 -145q64 94 164 148.5t225 54.5q220 0 356 -151q136 -150 134 -452h-784q3 -165 92 -263q90 -96 224 -96q100 0 171 55t103 167 l180 -26q-43 -166 -160 -255t-297 -89q-135 0 -240 52.5t-168 146.5zM267 533q0 -185 71 -283q91 -126 239 -126q130 0 221 106q92 107 92 305q0 199 -91 300q-90 103 -222 103q-87 0 -160 -49q-36 -24 -64 -61.5t-47 -83.5t-29 -100t-10 -111zM1667 631q-12 150 -92 229 q-80 78 -197 78q-121 0 -204 -82q-84 -84 -94 -225h587z" />
<glyph unicode="&#x160;" horiz-adv-x="1358" d="M655 1660l110 170h204l-225 -280h-192l-216 280h206zM275 487q14 -111 60 -181q48 -71 148 -114q99 -43 225 -43q85 -1 153 18.5t116 54t72.5 80t22.5 96.5q0 69 -39.5 120.5t-132.5 86.5q-29 11 -94 29t-167 42q-102 25 -172 47.5t-111 44.5q-106 55 -157 136t-51 183 q0 111 63 207q63 98 184 147q123 50 269 50q161 0 287 -53q63 -26 111 -65t81 -88.5t51 -108.5t21 -123l-186 -14q-15 139 -101.5 210t-255.5 71q-175 0 -257 -65q-80 -65 -80 -155q0 -79 57 -130q55 -51 292 -105q236 -52 325 -93q129 -60 189.5 -150t60.5 -208t-67 -221 q-67 -102 -193 -161q-125 -57 -282 -57q-200 0 -334 58q-135 59 -211 174q-75 115 -80 264z" />
<glyph unicode="&#x161;" horiz-adv-x="1036" d="M507 1304l110 170h204l-225 -280h-192l-216 280h206zM241 345q15 -108 83 -164.5t192 -56.5q123 0 184 50q60 51 60 119q0 61 -53 96q-37 23 -184 61q-197 49 -275 86q-76 37 -115.5 101.5t-39.5 142.5q0 72 32 132t89 100q21 15 50 28.5t64 23.5t74.5 16t81.5 6 q124 0 219 -36t140 -98q46 -63 62 -164l-176 -24q-12 82 -69 128t-163 46q-124 0 -177 -41t-53 -96q0 -35 22 -63q22 -29 69 -48q14 -5 53.5 -16.5t105.5 -29.5q192 -51 266 -84q76 -32 119 -93.5t43 -154.5q0 -90 -53 -170q-52 -79 -150.5 -122.5t-224.5 -43.5 q-207 0 -315.5 86t-138.5 255z" />
<glyph unicode="&#x178;" horiz-adv-x="1417" d="M401 1556v205h188v-205h-188zM774 1556v205h188v-205h-188zM571 0v621l-565 845h236l289 -442q40 -63 77 -124t72 -124q33 58 72.5 122.5t87.5 136.5l284 431h226l-585 -845v-621h-194z" />
<glyph unicode="&#x17d;" horiz-adv-x="1321" d="M655 1660l110 170h204l-225 -280h-192l-216 280h206zM41 0v180l751 939q40 51 78 94t74 80h-818v173h1050v-173l-823 -1017l-89 -103h936v-173h-1159z" />
<glyph unicode="&#x17e;" horiz-adv-x="1058" d="M543 1304l110 170h204l-225 -280h-192l-216 280h206zM40 0v146l676 776q-116 -6 -203 -6h-433v146h868v-119l-575 -674l-111 -123q121 9 227 9h491v-155h-940z" />
<glyph unicode="&#x192;" horiz-adv-x="1079" d="M81 -250q51 -11 88.5 -16.5t63.5 -5.5q55 0 83 28q29 29 45 124l177 1042h-201l24 140h201l24 133q22 120 45 165q31 63 88 97.5t151 34.5q78 0 215 -38l-35 -153q-104 24 -154 24q-56 0 -84 -28q-27 -26 -47 -132l-19 -103h204l-25 -140h-204l-191 -1092 q-26 -149 -87 -204q-62 -57 -173 -57q-48 0 -103 6.5t-121 19.5z" />
<glyph unicode="&#x2c6;" horiz-adv-x="757" d="M344 1364l-113 -170h-206l216 280h192l225 -280h-204z" />
<glyph unicode="&#x2dc;" horiz-adv-x="762" d="M7 1219q-2 104 57 166q57 62 146 62q62 0 169 -54q58 -30 94 -30q32 0 49 17.5t24 69.5h130q-3 -114 -57.5 -171t-138.5 -57q-62 0 -166 56q-68 36 -98 36q-34 0 -55 -24q-23 -24 -21 -71h-133z" />
<glyph unicode="&#x60c;" horiz-adv-x="580" d="M424 116q0 -19 -8 -43.5t-26.5 -47t-49 -38t-76.5 -16.5q-44 -2 -82 18.5t-63 52.5q-23 29 -33.5 67t-8.5 80q3 56 17.5 102.5t38.5 85.5t56.5 71.5t71.5 60.5h102q-32 -24 -58.5 -55t-47 -66.5t-34.5 -74t-20 -77.5q21 7 46 12t43 5q65 0 98.5 -34t33.5 -103z" />
<glyph unicode="&#x615;" d="M-260 845q2 5 11 3q17 -3 37.5 -6l41 -6t39.5 -5t33 -2l35 45q8 14 12.5 35t6.5 41q3 23 3 47q-1 55 -4.5 118.5t-8.5 120.5t-10 99t-8 53q5 5 17.5 16.5t26 23.5t24.5 20.5t13 8.5t2.5 -3t1.5 -14q1 -12 2.5 -52.5t3.5 -92t3 -105t0 -90.5q0 -9 -1 -27t-4.5 -40.5 t-10 -46.5t-16.5 -43q29 37 67 78t79.5 75.5t83 56.5t77.5 22q41 0 69 -13.5t44.5 -34.5t24.5 -46.5t10.5 -50.5t0.5 -47t-5 -34q-10 -26 -21 -51q-9 -21 -18.5 -44t-17.5 -40q-12 -11 -36.5 -25.5t-60.5 -27t-81.5 -22t-99.5 -10.5q-24 0 -60 0.5t-75 2t-75 4t-60 6.5 q-15 9 -32 24t-31.5 31t-24 29.5t-8.5 18.5zM385 907q3 10 5.5 26t2 35t-5 38t-17.5 34.5t-35 24.5t-56 8q-41 -1 -78 -16.5t-70 -38t-61.5 -50.5t-51 -55t-40 -50t-27.5 -37l65 -2.5t90 0.5q29 -1 70 4.5t81.5 16t75.5 26t52 36.5z" />
<glyph unicode="&#x61b;" horiz-adv-x="574" d="M118 111q0 30 11 56.5t30.5 46t46 31t56.5 11.5t56.5 -11.5t46 -31t31 -46t11.5 -56.5t-11.5 -56.5t-31 -46t-46 -30.5t-56.5 -11t-56.5 11t-46 30.5t-30.5 46t-11 56.5zM425 668q0 -19 -7.5 -44t-26 -47.5t-49.5 -38t-77 -16.5q-43 -1 -81 19.5t-63 52.5 q-23 29 -33.5 66.5t-8.5 79.5q3 56 17 102.5t38 85.5t56.5 72t71.5 61h102q-64 -48 -105.5 -121.5t-54.5 -151.5q22 7 47 12t43 5q64 0 97.5 -34t33.5 -103z" />
<glyph unicode="&#x61f;" horiz-adv-x="1024" d="M874 1200q0 -86 -42 -144q-47 -69 -134 -69q-52 0 -88 33q-35 32 -35 83q0 54 39 92q42 39 97 39q45 0 92 -27q1 93 -77 153q-74 57 -174 57q-88 0 -153 -68q-64 -67 -64 -151q-3 -41 2.5 -78t20 -76t37.5 -82.5t54 -98.5q28 -55 51 -95t41.5 -74t34.5 -66.5t30 -72.5 v-210h-87v179q-11 12 -36 38t-56 58t-64.5 66t-61 63t-46.5 48.5t-21 21.5q-108 125 -108 275q0 165 112 283q115 126 288 126q143 0 243 -83q105 -88 105 -220zM666 103q0 -23 -9 -42.5t-24 -34.5t-35 -23.5t-42 -8.5q-45 0 -79 32q-32 32 -32 77q0 23 9 43t24 35t35 24 t43 9q45 0 77 -33q33 -32 33 -78z" />
<glyph unicode="&#x621;" horiz-adv-x="973" d="M121 33l184 105q-18 12 -43 34.5t-49.5 53.5t-43.5 70t-23 84q-2 33 12.5 75t40.5 85.5t61.5 85t75.5 74t82.5 52t83.5 19.5q43 0 84 -10t79.5 -33t73.5 -61.5t68 -96.5l-58 -30q-8 4 -26 12t-46 15.5t-65 13t-83 5.5q-47 0 -90 -21.5t-77 -49t-54 -54t-20 -36.5 q0 -13 17.5 -40t53.5 -56t89.5 -54.5t125.5 -35.5q47 7 85 13.5t70 13.5t61.5 14.5t59.5 15.5l-3 -2l-31 -178q-8 -2 -19 -4t-21 -4q-99 -19 -183 -38t-166 -46t-169 -65.5t-192 -97.5z" />
<glyph unicode="&#x622;" horiz-adv-x="668" d="M345 -54q-8 -11 -11.5 -8.5t-3.5 7.5q-2 147 -5 295.5t-7.5 286t-9.5 257t-10 208.5q-2 25 -3.5 59t-4 71.5t-4.5 77t-4 77.5q-4 88 -9 184q47 44 85 78q16 15 32 28.5t29 24t22 16t11 4.5q1 -1 3 -5t3 -11t2 -20q1 -50 1.5 -115.5t0.5 -135v-136.5v-119q0 -59 -1 -133.5 t-2.5 -157t-3.5 -169.5t-5.5 -171.5t-7.5 -163t-9 -143.5q-18 -41 -35 -77q-14 -31 -29 -62t-24 -47zM12 1675q6 29 18.5 66.5t29 71.5t36.5 57.5t42 25.5q41 2 85 -2t90 -10t92 -11t92 -5q34 0 64 5.5t54.5 14t44 17.5t33.5 15l17 -21q-12 -20 -35 -48t-55.5 -54.5 t-72 -46.5t-84.5 -24q-37 -5 -77.5 -2.5t-79.5 7.5t-74.5 10t-62.5 5q-25 -1 -45.5 -9.5t-37 -21.5t-29 -28t-21.5 -28z" />
<glyph unicode="&#x623;" horiz-adv-x="579" d="M263 -16q-8 -11 -11.5 -8.5t-3.5 7.5q-2 147 -5 295.5t-7.5 286t-9.5 257t-10 208.5q-2 25 -3.5 59t-4 71.5t-4.5 77t-4 77.5q-4 88 -9 184q47 44 85 78q16 15 32 28.5t29 24t22 16t11 4.5q1 -1 3 -5t3 -11t2 -20q1 -50 1.5 -115.5t0.5 -135v-136.5v-119q0 -59 -1 -133.5 t-2.5 -157t-3.5 -169.5t-5.5 -171.5t-7.5 -163t-9 -143.5q-18 -41 -35 -77q-14 -31 -29 -62t-24 -47zM54 1759l116 65q-7 4 -22.5 16.5t-32 31.5t-30 44t-15.5 55q-2 29 17 68t49.5 74.5t68 60t72.5 24.5q50 0 94 -24t80 -88l-26 -13q-9 5 -42 16t-90 11q-29 0 -56 -13.5 t-48 -31t-34 -34.5t-13 -24q0 -8 10 -26t31 -36.5t55 -34.5t82 -20q30 4 53 8t42.5 8t36.5 8.5t35 9.5q1 1 -3.5 -14.5t-9.5 -33.5q-6 -22 -14 -49q-9 -2 -19.5 -3.5t-25.5 -4.5t-36.5 -8t-51.5 -12q-43 -9 -77 -19t-67.5 -23.5t-70.5 -31.5t-85 -43z" />
<glyph unicode="&#x624;" horiz-adv-x="987" d="M539 196q38 0 73 2t61 4q31 3 57 6q-4 17 -11 49t-19.5 71t-32 80t-47 74.5t-65 55t-86.5 21.5h-2q-39 0 -70 -15t-55 -38t-41 -50.5t-27.5 -53.5t-15 -46.5t-2.5 -29.5q4 -24 26 -47.5t59 -41.5t87.5 -29.5t110.5 -11.5zM506 756q73 -5 126 -45.5t90.5 -102.5t60.5 -139 t36 -154t17.5 -147.5t4.5 -119.5q0 -88 -22 -163.5t-58.5 -139t-84 -115.5t-99 -92.5t-102.5 -70.5t-94.5 -49t-76 -28t-46.5 -8q-5 0 -7 1q-21 10 -54 27.5t-65.5 36t-59 34.5t-34.5 24q-9 8 -4 11.5t7 4.5q151 43 271.5 98t207 117.5t138.5 129.5t67 134q-22 -2 -52 -5 q-26 -2 -62 -4t-82 -1q-34 0 -73 6t-78 20.5t-74.5 38.5t-62.5 61t-44 87.5t-17 118.5q0 30 9 73.5t27 92t45.5 96.5t63.5 86t81 62t98 24h2zM242 961l116 66q-8 4 -23.5 16.5t-32 31.5t-29.5 43.5t-15 54.5q-1 19 7.5 43t23.5 49t35.5 49t43.5 42.5t47.5 30t48.5 11.5 q50 0 93.5 -23.5t78.5 -87.5l-25 -13q-9 4 -42 15.5t-89 11.5q-29 0 -56 -13.5t-48 -31t-33.5 -34.5t-12.5 -24q0 -8 9.5 -25.5t31 -36.5t55 -34.5t81.5 -19.5q30 4 52.5 8t42 8t36.5 8.5t35 9.5q1 1 -3.5 -14t-9.5 -33q-6 -21 -15 -49q-8 -2 -18.5 -3.5t-25.5 -4.5 t-36.5 -8t-51.5 -12q-43 -9 -77 -19t-67 -23.5t-69.5 -31.5t-84.5 -43z" />
<glyph unicode="&#x625;" horiz-adv-x="564" d="M268 -16q-8 -11 -11.5 -8.5t-3.5 7.5q-2 147 -5 295.5t-7.5 286t-9.5 257t-10 208.5q-2 25 -3.5 59t-4 71.5t-4.5 77t-4 77.5q-4 88 -9 184q47 44 85 78q16 15 32 28.5t29 24t22 16t11 4.5q1 -1 3 -5t3 -11t2 -20q1 -50 1.5 -115.5t0.5 -135v-136.5v-119q0 -59 -1 -133.5 t-2.5 -157t-3.5 -169.5t-5.5 -171.5t-7.5 -163t-9 -143.5q-18 -41 -35 -77q-14 -31 -29 -62t-24 -47zM27 -545l116 65q-7 4 -22.5 16.5t-32 31.5t-30 44t-15.5 55q-2 29 17 68t49.5 74.5t68 60t72.5 24.5q50 0 94 -24t80 -88l-26 -13q-9 5 -42 16t-90 11q-29 0 -56 -13.5 t-48 -31t-34 -34.5t-13 -24q0 -8 10 -26t31 -36.5t55 -34.5t82 -20q30 4 53 8t42.5 8t36.5 8.5t35 9.5q1 1 -3.5 -14.5t-9.5 -33.5q-6 -22 -14 -49q-9 -2 -19.5 -3.5t-25.5 -4.5t-36.5 -8t-51.5 -12q-43 -9 -77 -19t-67.5 -23.5t-70.5 -31.5t-85 -43z" />
<glyph unicode="&#x626;" horiz-adv-x="1677" d="M1482 22q23 -82 14 -149t-32 -124q-38 -63 -102 -121.5t-152.5 -105t-200 -78t-244.5 -42.5q-111 -7 -215 4.5t-190 49t-148.5 105.5t-90.5 174t-15.5 254.5t76.5 347.5q7 21 18 53.5t23.5 66.5t25 66t21.5 53l68 -39q-14 -38 -29.5 -86.5t-34.5 -116.5 q-13 -53 -24.5 -114.5t-17 -125t-1 -127t24 -120.5t57 -104.5t98.5 -79.5t148 -45.5t206 -2.5q139 13 238.5 40.5t171 63.5t119.5 77t84 81q-42 26 -100.5 48.5t-121.5 44t-124 43t-109 46.5t-77 54t-27 65q9 113 40.5 212.5t82 181t118.5 143t148 97t171 43.5t189 -16 l-65 -199q-110 18 -196.5 -6t-155.5 -76t-122 -124.5t-95 -151.5q33 -22 85 -44.5t111.5 -45.5t119.5 -46t110 -44.5t83.5 -41.5t38.5 -38zM497 702l116 66q-8 4 -23.5 16.5t-32 31.5t-29.5 43.5t-15 54.5q-1 19 7.5 43t23.5 49t35.5 49t43.5 42.5t47.5 30t48.5 11.5 q50 0 93.5 -23.5t78.5 -87.5l-25 -13q-9 4 -42 15.5t-89 11.5q-29 0 -56 -13.5t-48 -31t-33.5 -34.5t-12.5 -24q0 -8 9.5 -25.5t31 -36.5t55 -34.5t81.5 -19.5q30 4 52.5 8t42 8t36.5 8.5t35 9.5q1 1 -3.5 -14t-9.5 -33q-6 -21 -15 -49q-8 -2 -18.5 -3.5t-25.5 -4.5 t-36.5 -8t-51.5 -12q-43 -9 -77 -19t-67 -23.5t-69.5 -31.5t-84.5 -43z" />
<glyph unicode="&#x627;" horiz-adv-x="505" d="M228 -16q-8 -11 -11.5 -8.5t-3.5 7.5q-2 147 -5 295.5t-7.5 286t-9.5 257t-10 208.5q-2 25 -3.5 59t-4 71.5t-4.5 77t-4 77.5q-4 88 -9 184q47 44 85 78q16 15 32 28.5t29 24t22 16t11 4.5q1 -1 3 -5t3 -11t2 -20q1 -50 1.5 -115.5t0.5 -135v-136.5v-119q0 -59 -1 -133.5 t-2.5 -157t-3.5 -169.5t-5.5 -171.5t-7.5 -163t-9 -143.5q-18 -41 -35 -77q-14 -31 -29 -62t-24 -47z" />
<glyph unicode="&#x628;" horiz-adv-x="1986" d="M979 -28q-65 0 -145 2.5t-163.5 13t-165.5 32t-151 60t-120 97t-73 142t-9 195.5t72 258l73 -37q-40 -106 -41.5 -185.5t25 -138.5t75.5 -98.5t110.5 -64.5t130.5 -38.5t135 -19t124.5 -6t98.5 -0.5q43 0 109.5 3t144.5 10t161 17.5t159.5 25.5t139 34.5t100.5 44.5 q4 18 -2.5 49t-19.5 67t-30 74.5t-33.5 72.5t-31.5 59.5t-23 36.5q33 55 60 99q12 19 23 36.5t20.5 32t16 23t8.5 9.5q4 1 19.5 -24t34 -72t35.5 -113.5t23.5 -147t-2 -172.5t-39.5 -190q-42 -31 -107.5 -57t-142.5 -46.5t-161 -36.5t-164.5 -26.5t-151.5 -15.5t-122 -5z M1152 -414l-158 -158l-159 159l158 158z" />
<glyph unicode="&#x629;" horiz-adv-x="892" d="M816 353q-21 -183 -115.5 -275.5t-257.5 -92.5q-70 0 -129.5 23.5t-100 69t-58.5 112.5t-5 155q7 45 23 98t38 107t47 106.5t49.5 95.5t46 74.5t36.5 43.5q2 2 35 -12.5t80 -44.5t101.5 -75t101 -103t77.5 -129t31 -153zM450 166q37 0 84 8.5t91 25.5t80 42t52 58 q-1 37 -24.5 75t-59.5 74.5t-80.5 69t-89 58.5t-84 43.5t-65.5 24.5q-66 -105 -88 -193t-7 -151.5t64.5 -99t126.5 -35.5zM234 1065l-148 149l147 149l150 -150zM608 1064l-150 149l149 149l148 -150z" />
<glyph unicode="&#x62a;" horiz-adv-x="1970" d="M978 -28q-65 0 -145 2.5t-163.5 13t-165.5 32t-151 60t-120 97t-73 142t-9 195.5t72 258l73 -37q-40 -106 -41.5 -185.5t25 -138.5t75.5 -98.5t110.5 -64.5t130.5 -38.5t135 -19t124.5 -6t98.5 -0.5q43 0 109.5 3t144.5 10t161 17.5t159.5 25.5t139 34.5t100.5 44.5 q4 18 -2.5 49t-19.5 67t-30 74.5t-33.5 72.5t-31.5 59.5t-23 36.5q33 55 60 99q12 19 23 36.5t20.5 32t16 23t8.5 9.5q4 1 19.5 -24t34 -72t35.5 -113.5t23.5 -147t-2 -172.5t-39.5 -190q-42 -31 -107.5 -57t-142.5 -46.5t-161 -36.5t-164.5 -26.5t-151.5 -15.5t-122 -5z M848 623l-148 149l147 149l150 -150zM1222 622l-150 149l149 149l148 -150z" />
<glyph unicode="&#x62b;" horiz-adv-x="1965" d="M977 -28q-65 0 -145 2.5t-163.5 13t-165.5 32t-151 60t-120 97t-73 142t-9 195.5t72 258l73 -37q-40 -106 -41.5 -185.5t25 -138.5t75.5 -98.5t110.5 -64.5t130.5 -38.5t135 -19t124.5 -6t98.5 -0.5q43 0 109.5 3t144.5 10t161 17.5t159.5 25.5t139 34.5t100.5 44.5 q4 18 -2.5 49t-19.5 67t-30 74.5t-33.5 72.5t-31.5 59.5t-23 36.5q33 55 60 99q12 19 23 36.5t20.5 32t16 23t8.5 9.5q4 1 19.5 -24t34 -72t35.5 -113.5t23.5 -147t-2 -172.5t-39.5 -190q-42 -31 -107.5 -57t-142.5 -46.5t-161 -36.5t-164.5 -26.5t-151.5 -15.5t-122 -5z M868 591l-148 149l147 149l150 -150zM1220 591l-150 149l149 149l148 -150zM1183 1027l-141 -141l-143 142l141 141z" />
<glyph unicode="&#x62c;" horiz-adv-x="1499" d="M1338 460q-180 0 -327 -22.5t-263 -61t-204 -90t-151 -110t-102.5 -121.5t-59.5 -123q18 -98 66 -169.5t117.5 -120.5t155 -78t178 -42.5t186.5 -13.5t181 9.5t162 25.5t128 34v-2q-11 -29 -22.5 -61t-21.5 -59q-11 -32 -22 -63q-74 -38 -164.5 -60.5t-189 -28.5 t-199.5 5.5t-195 41.5t-176 79.5t-143 120t-95.5 162.5t-33.5 208q1 41 12.5 98t44.5 121t91 131t151 126.5t224.5 108t312.5 75.5q-55 18 -117 37t-124 36.5t-119 33t-101 26.5t-71.5 18t-29.5 7q-5 0 -14 -2t-22.5 -10t-31 -23.5t-38.5 -42.5q-16 -20 -30 -41t-30 -43 l-68 45q39 67 71 122.5t64.5 95.5t68.5 62.5t84 23.5q45 1 100.5 -14.5t121.5 -40t144 -56t169.5 -62.5t196.5 -59.5t226 -46.5zM1019 -38l-158 -158l-159 159l158 158z" />
<glyph unicode="&#x62d;" horiz-adv-x="1505" d="M1338 451q-180 0 -327 -22.5t-263 -61t-204 -90t-151 -110t-102.5 -121.5t-59.5 -123q18 -98 66 -169.5t117.5 -120.5t155 -78t178 -42.5t186.5 -13.5t181 9.5t162 25.5t128 34v-2q-11 -29 -22.5 -61t-21.5 -59q-11 -32 -22 -63q-74 -38 -164.5 -60.5t-189 -28.5 t-199.5 5.5t-195 41.5t-176 79.5t-143 120t-95.5 162.5t-33.5 208q1 41 12.5 98t44.5 121t91 131t151 126.5t224.5 108t312.5 75.5q-55 18 -117 37t-124 36.5t-119 33t-101 26.5t-71.5 18t-29.5 7q-5 0 -14 -2t-22.5 -10t-31 -23.5t-38.5 -42.5q-16 -20 -30 -41t-30 -43 l-68 45q39 67 71 122.5t64.5 95.5t68.5 62.5t84 23.5q45 1 100.5 -14.5t121.5 -40t144 -56t169.5 -62.5t196.5 -59.5t226 -46.5z" />
<glyph unicode="&#x62e;" horiz-adv-x="1488" d="M1338 461q-180 0 -327 -22.5t-263 -61t-204 -90t-151 -110t-102.5 -121.5t-59.5 -123q18 -98 66 -169.5t117.5 -120.5t155 -78t178 -42.5t186.5 -13.5t181 9.5t162 25.5t128 34v-2q-11 -29 -22.5 -61t-21.5 -59q-11 -32 -22 -63q-74 -38 -164.5 -60.5t-189 -28.5 t-199.5 5.5t-195 41.5t-176 79.5t-143 120t-95.5 162.5t-33.5 208q1 41 12.5 98t44.5 121t91 131t151 126.5t224.5 108t312.5 75.5q-55 18 -117 37t-124 36.5t-119 33t-101 26.5t-71.5 18t-29.5 7q-5 0 -14 -2t-22.5 -10t-31 -23.5t-38.5 -42.5q-16 -20 -30 -41t-30 -43 l-68 45q39 67 71 122.5t64.5 95.5t68.5 62.5t84 23.5q45 1 100.5 -14.5t121.5 -40t144 -56t169.5 -62.5t196.5 -59.5t226 -46.5zM833 1254l-158 -158l-159 159l158 158z" />
<glyph unicode="&#x62f;" horiz-adv-x="973" d="M320 889q28 48 53 86q10 16 20.5 31.5t19 27.5t15 19.5t9.5 7.5t32.5 -24t73 -66t95 -98.5t99.5 -121.5t86.5 -136t55.5 -141q3 -12 7 -52.5t2.5 -94.5t-11 -114.5t-33.5 -113.5q-4 -9 -23.5 -26t-60 -34t-104 -30t-155.5 -13q-71 0 -134.5 7t-111.5 17t-77.5 19 t-31.5 14q-13 25 -20.5 63t-10 72t-1 57.5t7.5 20.5q13 -8 40 -18.5t70.5 -20.5t105.5 -17t145 -7q55 1 104 3t91 11t75.5 28t56.5 54q-9 47 -38.5 100.5t-72 109t-93.5 110.5t-102.5 104.5t-99.5 92t-84 73.5z" />
<glyph unicode="&#x630;" horiz-adv-x="985" d="M320 889q28 48 53 86q10 16 20.5 31.5t19 27.5t15 19.5t9.5 7.5t32.5 -24t73 -66t95 -98.5t99.5 -121.5t86.5 -136t55.5 -141q3 -12 7 -52.5t2.5 -94.5t-11 -114.5t-33.5 -113.5q-4 -9 -23.5 -26t-60 -34t-104 -30t-155.5 -13q-71 0 -134.5 7t-111.5 17t-77.5 19 t-31.5 14q-13 25 -20.5 63t-10 72t-1 57.5t7.5 20.5q13 -8 40 -18.5t70.5 -20.5t105.5 -17t145 -7q55 1 104 3t91 11t75.5 28t56.5 54q-9 47 -38.5 100.5t-72 109t-93.5 110.5t-102.5 104.5t-99.5 92t-84 73.5zM578 1391l-158 -158l-159 159l158 158z" />
<glyph unicode="&#x631;" horiz-adv-x="744" d="M480 622l1 -1q9 -7 24 -38.5t33 -78t36.5 -104t34 -116.5t26 -115t12.5 -100q4 -87 -14.5 -163t-52 -140.5t-78.5 -117.5t-93.5 -95.5t-97 -74t-89.5 -52t-71 -31t-41 -10.5q-2 0 -6 2q-20 12 -57.5 32t-74.5 40q-44 23 -93 49q-11 9 -6.5 13.5t8.5 5.5q71 20 148 49.5 t150.5 67.5t139.5 85t116.5 101.5t80.5 116t32 129.5q-12 43 -32.5 83.5t-46 82t-55.5 85.5t-62 93q15 30 35 65t38.5 65.5t33.5 51t21 20.5z" />
<glyph unicode="&#x632;" horiz-adv-x="813" d="M480 622l1 -1q9 -7 24 -38.5t33 -78t36.5 -104t34 -116.5t26 -115t12.5 -100q4 -87 -14.5 -163t-52 -140.5t-78.5 -117.5t-93.5 -95.5t-97 -74t-89.5 -52t-71 -31t-41 -10.5q-2 0 -6 2q-20 12 -57.5 32t-74.5 40q-44 23 -93 49q-11 9 -6.5 13.5t8.5 5.5q71 20 148 49.5 t150.5 67.5t139.5 85t116.5 101.5t80.5 116t32 129.5q-12 43 -32.5 83.5t-46 82t-55.5 85.5t-62 93q15 30 35 65t38.5 65.5t33.5 51t21 20.5zM607 1025l-158 -158l-159 159l158 158z" />
<glyph unicode="&#x633;" horiz-adv-x="2495" d="M2288 821q5 0 16.5 -23t24 -62t25 -90t20.5 -107.5t9 -114t-9 -108.5q-29 -148 -102.5 -225t-197.5 -91q-57 -1 -100 18t-74 49.5t-52.5 69.5t-36.5 79q-24 -50 -46 -88.5t-51.5 -66t-70.5 -43t-102 -18.5q-22 -1 -41 0.5t-38 7.5t-40.5 16t-48.5 25l-1 2 q0 -162 -48.5 -288.5t-138.5 -213t-219.5 -129.5t-291.5 -38q-100 3 -191.5 28.5t-163 80t-117 139.5t-54 207t26 283t123.5 368l73 -37q-36 -101 -65.5 -202t-41.5 -193.5t-0.5 -172.5t58 -140t133 -96t224.5 -40q135 4 235.5 26t171 66t114 112.5t63.5 165.5 q-18 76 -40 142.5t-43.5 119.5t-39.5 92.5t-27 62.5q18 30 40.5 65.5t42 65t33.5 46.5t16 11q25 -60 43.5 -110t36.5 -95t33 -74t29.5 -46.5t30.5 -26t34.5 -13t42 -7t53.5 -8.5q78 9 118 37t59.5 72t26 104t16.5 134l98 35q0 -34 -1.5 -61t-4 -51l-5 -48t-5.5 -52 q9 -20 24 -49.5t40.5 -56.5t64.5 -45.5t95 -16.5q15 1 44 3.5t60 13t58.5 32.5t39.5 63q-7 50 -22 100.5t-32 93.5t-33 74t-26 43q31 54 57 97q11 18 22 35.5t20.5 31t16 22t9.5 8.5z" />
<glyph unicode="&#x634;" horiz-adv-x="2522" d="M2288 821q5 0 16.5 -23t24 -62t25 -90t20.5 -107.5t9 -114t-9 -108.5q-29 -148 -102.5 -225t-197.5 -91q-57 -1 -100 18t-74 49.5t-52.5 69.5t-36.5 79q-24 -50 -46 -88.5t-51.5 -66t-70.5 -43t-102 -18.5q-22 -1 -41 0.5t-38 7.5t-40.5 16t-48.5 25l-1 2 q0 -162 -48.5 -288.5t-138.5 -213t-219.5 -129.5t-291.5 -38q-100 3 -191.5 28.5t-163 80t-117 139.5t-54 207t26 283t123.5 368l73 -37q-36 -101 -65.5 -202t-41.5 -193.5t-0.5 -172.5t58 -140t133 -96t224.5 -40q135 4 235.5 26t171 66t114 112.5t63.5 165.5 q-18 76 -40 142.5t-43.5 119.5t-39.5 92.5t-27 62.5q18 30 40.5 65.5t42 65t33.5 46.5t16 11q25 -60 43.5 -110t36.5 -95t33 -74t29.5 -46.5t30.5 -26t34.5 -13t42 -7t53.5 -8.5q78 9 118 37t59.5 72t26 104t16.5 134l98 35q0 -34 -1.5 -61t-4 -51l-5 -48t-5.5 -52 q9 -20 24 -49.5t40.5 -56.5t64.5 -45.5t95 -16.5q15 1 44 3.5t60 13t58.5 32.5t39.5 63q-7 50 -22 100.5t-32 93.5t-33 74t-26 43q31 54 57 97q11 18 22 35.5t20.5 31t16 22t9.5 8.5zM1641 863l-148 149l147 149l150 -150zM1993 863l-150 149l149 149l148 -150zM1956 1299 l-141 -141l-143 142l141 141z" />
<glyph unicode="&#x635;" horiz-adv-x="2590" d="M2151 813q64 4 114 -8.5t88 -35t66 -52.5t47 -62q45 -75 60 -172q-10 -33 -23 -72.5t-28 -79t-31.5 -76.5t-33.5 -66q-53 -56 -122.5 -94.5t-147 -62.5t-160.5 -34.5t-163 -11.5t-154 7t-133.5 22.5t-101.5 33t-58 39.5v1q-3 -159 -52 -291t-139 -226t-218.5 -144.5 t-288.5 -45.5q-100 3 -191.5 28.5t-163 80t-117 139.5t-54 207t26 283t123.5 368l73 -37q-36 -101 -65.5 -202t-41.5 -193.5t-0.5 -172.5t58 -140t133 -96t224.5 -40q135 4 235.5 26t171 66t114 112.5t63.5 165.5q-18 76 -40 150t-43.5 136.5t-39.5 109.5t-27 70 q18 30 40.5 65.5t42 65t33.5 46.5t16 11q6 -15 18 -44t27.5 -64.5t33.5 -74t36 -74t34.5 -63t29.5 -41.5q33 36 78 89t100 112t118.5 118t133.5 107.5t145 80.5t154 36zM2399 340q16 74 -0.5 126.5t-60.5 85t-112 44t-154 4.5q-104 -21 -192 -67t-157.5 -101.5 t-119.5 -112.5t-78 -100q18 -5 70 -14.5t125.5 -16t162.5 -6t180 15.5t178 48.5t158 93.5z" />
<glyph unicode="&#x636;" horiz-adv-x="2610" d="M2151 813q64 4 114 -8.5t88 -35t66 -52.5t47 -62q45 -75 60 -172q-10 -33 -23 -72.5t-28 -79t-31.5 -76.5t-33.5 -66q-53 -56 -122.5 -94.5t-147 -62.5t-160.5 -34.5t-163 -11.5t-154 7t-133.5 22.5t-101.5 33t-58 39.5v1q-3 -159 -52 -291t-139 -226t-218.5 -144.5 t-288.5 -45.5q-100 3 -191.5 28.5t-163 80t-117 139.5t-54 207t26 283t123.5 368l73 -37q-36 -101 -65.5 -202t-41.5 -193.5t-0.5 -172.5t58 -140t133 -96t224.5 -40q135 4 235.5 26t171 66t114 112.5t63.5 165.5q-18 76 -40 150t-43.5 136.5t-39.5 109.5t-27 70 q18 30 40.5 65.5t42 65t33.5 46.5t16 11q6 -15 18 -44t27.5 -64.5t33.5 -74t36 -74t34.5 -63t29.5 -41.5q33 36 78 89t100 112t118.5 118t133.5 107.5t145 80.5t154 36zM2399 340q16 74 -0.5 126.5t-60.5 85t-112 44t-154 4.5q-104 -21 -192 -67t-157.5 -101.5 t-119.5 -112.5t-78 -100q18 -5 70 -14.5t125.5 -16t162.5 -6t180 15.5t178 48.5t158 93.5zM2285 1163l-158 -158l-159 159l158 158z" />
<glyph unicode="&#x637;" horiz-adv-x="1604" d="M529 556q-2 76 -6 171.5t-10 195.5t-12.5 196.5t-13.5 176t-13.5 134t-10.5 70.5q10 11 37.5 35.5t57.5 49t54.5 42.5t29.5 17q2 0 4 -6t4 -29q1 -12 2.5 -46t3 -83t3.5 -110t3.5 -126.5t3 -132.5t2 -129.5t1 -116t-0.5 -92.5q0 -18 -0.5 -57.5t-5.5 -87t-15.5 -98 t-31.5 -91.5q53 63 117.5 127t136.5 117t149.5 88.5t157.5 41.5q68 4 119.5 -10t89 -40.5t62.5 -61.5t41 -72q37 -87 38 -201q-20 -66 -45 -136.5t-55 -128.5q-49 -46 -115.5 -77.5t-143.5 -51t-162 -29.5t-170 -13t-167 -0.5t-153.5 7.5t-130 10.5t-96.5 9.5 q-32 18 -68 50.5t-66.5 66t-49.5 61.5t-17 38q2 6 9 7.5t15 -0.5q36 -6 81 -13t90.5 -12.5t87 -9.5t70.5 -5q11 17 27.5 41t34.5 50q12 29 18 73.5t8 86.5q3 49 1 103zM1414 338q16 73 1 126t-57 85.5t-109 45t-153 4.5q-104 -21 -192.5 -70.5t-159.5 -108.5t-122 -119 t-79 -102q13 -4 47.5 -8.5t83.5 -7.5t109.5 -3.5t127 4t135.5 14.5t135 28t125.5 45.5t107.5 66.5z" />
<glyph unicode="&#x638;" horiz-adv-x="1581" d="M522 556q-2 76 -6 171.5t-10 195.5t-12.5 196.5t-13.5 176t-13.5 134t-10.5 70.5q10 11 37.5 35.5t57.5 49t54.5 42.5t29.5 17q2 0 4 -6t4 -29q1 -12 2.5 -46t3 -83t3.5 -110t3.5 -126.5t3 -132.5t2 -129.5t1 -116t-0.5 -92.5q0 -18 -0.5 -57.5t-5.5 -87t-15.5 -98 t-31.5 -91.5q53 63 117.5 127t136.5 117t149.5 88.5t157.5 41.5q68 4 119.5 -10t89 -40.5t62.5 -61.5t41 -72q37 -87 38 -201q-20 -66 -45 -136.5t-55 -128.5q-49 -46 -115.5 -77.5t-143.5 -51t-162 -29.5t-170 -13t-167 -0.5t-153.5 7.5t-130 10.5t-96.5 9.5 q-32 18 -68 50.5t-66.5 66t-49.5 61.5t-17 38q2 6 9 7.5t15 -0.5q36 -6 81 -13t90.5 -12.5t87 -9.5t70.5 -5q11 17 27.5 41t34.5 50q12 29 18 73.5t8 86.5q3 49 1 103zM1407 338q16 73 1 126t-57 85.5t-109 45t-153 4.5q-104 -21 -192.5 -70.5t-159.5 -108.5t-122 -119 t-79 -102q13 -4 47.5 -8.5t83.5 -7.5t109.5 -3.5t127 4t135.5 14.5t135 28t125.5 45.5t107.5 66.5zM1303 1181l-158 -158l-159 159l158 158z" />
<glyph unicode="&#x639;" horiz-adv-x="1264" d="M858 -510q88 0 157 11t122 26t93 30.5t71 23.5l-80 -195q-139 -63 -273.5 -84.5t-254.5 -9.5t-221 54.5t-174.5 108t-115 151.5t-40.5 185q0 49 14.5 101t40 103.5t61.5 101t79.5 93t93 80t103.5 61.5q-58 28 -98 61t-65.5 70t-37 75.5t-11.5 76.5q0 37 16.5 83t45.5 94 t67.5 93.5t82 81t89.5 57t91 21.5q47 0 92 -10.5t86.5 -35t79.5 -65t72 -101.5l-49 -25q-8 4 -28.5 12.5t-52 17t-74 15t-95.5 6.5q-37 0 -72.5 -12t-67 -31t-58.5 -42t-46.5 -44.5t-30.5 -39.5t-11 -26q0 -16 21.5 -50t65 -71t109 -68.5t154.5 -41.5q87 26 168.5 45.5 t150.5 36.5q1 1 -1.5 -7.5t-6.5 -22.5t-9.5 -32t-11.5 -37q-14 -45 -32 -101q-77 -16 -167 -40t-181 -56.5t-176 -74.5t-153 -94.5t-112 -115.5t-52 -138q28 -65 71 -120.5t115 -96.5t180 -64.5t266 -23.5z" />
<glyph unicode="&#x63a;" horiz-adv-x="1280" d="M862 -510q88 0 157 11t122 26t93 30.5t71 23.5l-80 -195q-139 -63 -273.5 -84.5t-254.5 -9.5t-221 54.5t-174.5 108t-115 151.5t-40.5 185q0 49 14.5 101t40 103.5t61.5 101t79.5 93t93 80t103.5 61.5q-58 28 -98 61t-65.5 70t-37 75.5t-11.5 76.5q0 37 16.5 83t45.5 94 t67.5 93.5t82 81t89.5 57t91 21.5q47 0 92 -10.5t86.5 -35t79.5 -65t72 -101.5l-49 -25q-8 4 -28.5 12.5t-52 17t-74 15t-95.5 6.5q-37 0 -72.5 -12t-67 -31t-58.5 -42t-46.5 -44.5t-30.5 -39.5t-11 -26q0 -16 21.5 -50t65 -71t109 -68.5t154.5 -41.5q87 26 168.5 45.5 t150.5 36.5q1 1 -1.5 -7.5t-6.5 -22.5t-9.5 -32t-11.5 -37q-14 -45 -32 -101q-77 -16 -167 -40t-181 -56.5t-176 -74.5t-153 -94.5t-112 -115.5t-52 -138q28 -65 71 -120.5t115 -96.5t180 -64.5t266 -23.5zM897 1400l-158 -158l-159 159l158 158z" />
<glyph unicode="&#x640;" horiz-adv-x="671" d="M684 206q12 0 12 -8v-188q0 -10 -12 -10h-689q-11 0 -11 10v188q0 8 11 8h689z" />
<glyph unicode="&#x641;" horiz-adv-x="1986" d="M976 -28q-65 0 -145 2.5t-163.5 13t-165.5 32t-151 60t-120 97t-73 142t-9 195.5t72 258l73 -37q-40 -106 -41.5 -185.5t25 -138.5t75.5 -98.5t110.5 -64.5t130.5 -38.5t135 -19t124.5 -6t98.5 -0.5q47 0 108.5 1.5t130.5 5t141.5 10.5t140.5 18t127.5 27t103 37.5t67 50 t19.5 64.5q-29 -8 -66 -13q-32 -5 -76 -6.5t-100 3.5q-158 15 -236.5 84t-61.5 188q1 13 6.5 46.5t19 76t35.5 89t55.5 85.5t80 64t108.5 26q54 0 98.5 -23.5t80 -63t62 -91.5t46 -108t32 -113t18.5 -106q15 -117 -11 -204.5t-84.5 -150.5t-145.5 -103.5t-193.5 -64 t-229 -32.5t-252.5 -9zM1776 571q-4 12 -11.5 38t-21 58.5t-32.5 66.5t-45 62.5t-59.5 46.5t-75.5 18q-44 0 -76 -13.5t-55 -34.5t-37.5 -46t-23 -48.5t-12 -42t-3.5 -25.5q9 -17 32.5 -31.5t56.5 -25.5t73 -19t81 -11q58 -5 98 -4t65 3q29 3 46 8zM1703 1399l-158 -158 l-159 159l158 158z" />
<glyph unicode="&#x642;" horiz-adv-x="1450" d="M1363 25q-7 -153 -51 -273t-127 -203.5t-206.5 -127.5t-288.5 -44q-120 0 -218.5 29t-170 88t-112 149.5t-45 213.5t31.5 279t118 347l67 -38q-34 -108 -63 -211.5t-41 -195.5t-1 -170t57.5 -136t135 -92.5t231.5 -39.5q138 0 241 29.5t172.5 82.5t106 126t42.5 162 q-22 -2 -52 -5q-26 -2 -62 -4t-82 -1q-34 0 -73 6t-78 20.5t-74.5 38.5t-62.5 61t-44 87.5t-17 118.5q0 30 9 73.5t27 92t45.5 96.5t63.5 86t81 62t98 24h2q55 -4 99 -29t78.5 -65.5t60.5 -93t44.5 -111t30.5 -119.5t18.5 -118.5t8.5 -107.5t0 -87zM1056 196q38 0 73 2t61 4 q31 3 57 6q-4 17 -11 49t-19.5 71t-32 80t-47 74.5t-65 55t-86.5 21.5h-2q-39 0 -70 -15t-55 -38t-41 -50.5t-27.5 -53.5t-15 -46.5t-2.5 -29.5q4 -24 26 -47.5t59 -41.5t87.5 -29.5t110.5 -11.5zM802 945l-148 149l147 149l150 -150zM1176 944l-150 149l149 149l148 -150z " />
<glyph unicode="&#x643;" horiz-adv-x="1904" d="M1766 1643q1 -3 3.5 -51.5t4.5 -129.5t3.5 -187t1.5 -224.5t-1.5 -243.5t-6 -242.5t-12 -221.5t-19.5 -181q-40 -39 -103.5 -68t-140.5 -49.5t-162.5 -34t-167.5 -21.5t-156 -11.5t-129 -4.5q-69 -1 -145.5 4t-152.5 19t-148 40t-130 67.5t-99 101t-56 141t0 187 t69 239.5l73 -37q-36 -98 -40 -173.5t16.5 -133t61.5 -98t94.5 -68t115.5 -44t124.5 -24.5t121.5 -9.5t106 -0.5q31 1 90.5 4.5t133 10t154 17.5t154.5 26.5t134 36t92 47.5q-1 14 -2.5 57t-4 106.5t-6 144t-7 169.5t-8 182.5t-9 184t-9.5 173.5t-10 151q46 44 84 78 q16 14 31.5 27.5t27.5 24t20 16t9 3.5zM759 539l116 66q-8 4 -23.5 16.5t-32 31.5t-29.5 43.5t-15 54.5q-1 19 7.5 43t23.5 49t35.5 49t43.5 42.5t47.5 30t48.5 11.5q50 0 93.5 -23.5t78.5 -87.5l-25 -13q-9 4 -42 15.5t-89 11.5q-29 0 -56 -13.5t-48 -31t-33.5 -34.5 t-12.5 -24q0 -8 9.5 -25.5t31 -36.5t55 -34.5t81.5 -19.5q30 4 52.5 8t42 8t36.5 8.5t35 9.5q1 1 -3.5 -14t-9.5 -33q-6 -21 -15 -49q-8 -2 -18.5 -3.5t-25.5 -4.5t-36.5 -8t-51.5 -12q-43 -9 -77 -19t-67 -23.5t-69.5 -31.5t-84.5 -43z" />
<glyph unicode="&#x644;" horiz-adv-x="1395" d="M1243 8q-2 -147 -34.5 -256t-104.5 -180.5t-188.5 -107t-286.5 -35.5q-111 3 -200.5 31t-153.5 82.5t-98.5 136.5t-34.5 193.5t36.5 252.5t115.5 315l67 -42q-27 -67 -51.5 -139t-42 -141.5t-25 -132t-1.5 -110.5q3 -19 9 -42.5t21 -48.5t41 -49t68 -43.5t103 -33 t146 -16.5q145 -6 239 19t149.5 75.5t79.5 124.5t31 167.5t2.5 204.5t-5.5 235q-2 25 -5 78.5t-7 124.5t-8.5 154t-8.5 168t-8 166.5t-7.5 150t-5.5 118t-2 69.5l183 149q2 0 3 -1q5 -4 6 -46.5t0.5 -111t-2 -157.5t-1.5 -186q-1 -157 -0.5 -304t-1 -287t-5 -275.5 t-12.5 -269.5z" />
<glyph unicode="&#x645;" horiz-adv-x="1242" d="M806 748q38 0 78 -22.5t78 -62.5t70.5 -96t55 -123t31.5 -142.5t1 -154.5l-148 -171q-9 -6 -41.5 -3.5t-82 13t-112.5 28.5t-131.5 44t-140.5 59t-139 73q-2 -1 1.5 -41.5t11 -106t17.5 -149t21 -171.5t21 -173.5t17.5 -154t11 -113t1.5 -51.5q-3 -7 -11.5 -21t-20 -32 t-24.5 -37.5t-25.5 -37t-23 -30.5t-16.5 -18v1q-1 18 -8 71t-17.5 128.5t-24.5 166.5t-28 183t-28 179.5t-25 156.5t-18 113t-8 49q27 95 67 164q17 29 38 55t46 42.5t54 21t63 -8.5q41 61 85 126.5t92 120t100.5 90t111.5 35.5zM1031 175q3 52 -7.5 102.5t-29 96.5t-43 85 t-51 67.5t-52 44.5t-46.5 16q-39 0 -71.5 -20.5t-63 -55.5t-61.5 -82.5t-66 -101.5q39 -23 89 -45.5t102.5 -42.5t104 -36t93 -25.5t69 -11t33.5 8.5z" />
<glyph unicode="&#x646;" horiz-adv-x="1461" d="M1238 621q3 0 4 -1q2 -1 12 -26.5t23.5 -68.5t28.5 -100.5t28 -122.5t21 -134.5t8 -137.5q0 -150 -43.5 -270t-128 -204t-210.5 -129t-292 -45q-119 0 -218 29t-170.5 88.5t-112.5 150t-45 213.5t31.5 279t117.5 347l69 -38q-34 -108 -63 -211.5t-41 -195.5t-1 -170 t57.5 -136t135 -93t231.5 -40q152 1 256 30t171 79t102 117t48 145q-17 55 -35.5 118.5t-37.5 125t-38 117t-35 94.5q30 52 56 93q11 18 22 35t20.5 30.5t17 22t11.5 9.5zM917 631l-158 -158l-159 159l158 158z" />
<glyph unicode="&#x647;" horiz-adv-x="878" d="M813 353q-21 -183 -115.5 -275.5t-257.5 -92.5q-70 0 -129.5 23.5t-100 69t-58.5 112.5t-5 155q7 45 23 98t38 107t47 106.5t49.5 95.5t46 74.5t36.5 43.5q2 2 35 -12.5t80 -44.5t101.5 -75t101 -103t77.5 -129t31 -153zM447 166q37 0 84 8.5t91 25.5t80 42t52 58 q-1 37 -24.5 75t-59.5 74.5t-80.5 69t-89 58.5t-84 43.5t-65.5 24.5q-66 -105 -88 -193t-7 -151.5t64.5 -99t126.5 -35.5z" />
<glyph unicode="&#x648;" horiz-adv-x="1024" d="M539 196q38 0 73 2t61 4q31 3 57 6q-4 17 -11 49t-19.5 71t-32 80t-47 74.5t-65 55t-86.5 21.5h-2q-39 0 -70 -15t-55 -38t-41 -50.5t-27.5 -53.5t-15 -46.5t-2.5 -29.5q4 -24 26 -47.5t59 -41.5t87.5 -29.5t110.5 -11.5zM506 756q73 -5 126 -45.5t90.5 -102.5t60.5 -139 t36 -154t17.5 -147.5t4.5 -119.5q0 -88 -22 -163.5t-58.5 -139t-84 -115.5t-99 -92.5t-102.5 -70.5t-94.5 -49t-76 -28t-46.5 -8q-5 0 -7 1q-21 10 -54 27.5t-65.5 36t-59 34.5t-34.5 24q-9 8 -4 11.5t7 4.5q151 43 271.5 98t207 117.5t138.5 129.5t67 134q-22 -2 -52 -5 q-26 -2 -62 -4t-82 -1q-34 0 -73 6t-78 20.5t-74.5 38.5t-62.5 61t-44 87.5t-17 118.5q0 30 9 73.5t27 92t45.5 96.5t63.5 86t81 62t98 24h2z" />
<glyph unicode="&#x649;" horiz-adv-x="1729" d="M1526 5q23 -82 14 -149t-32 -124q-38 -63 -102 -121.5t-152.5 -105t-200 -78t-244.5 -42.5q-111 -7 -215 4.5t-190 49t-148.5 105.5t-90.5 174t-15.5 254.5t76.5 347.5q7 21 18 53.5t23.5 66.5t25 66t21.5 53l68 -39q-14 -38 -29.5 -86.5t-34.5 -116.5 q-13 -53 -24.5 -114.5t-17 -125t-1 -127t24 -120.5t57 -104.5t98.5 -79.5t148 -45.5t206 -2.5q139 13 238.5 40.5t171 63.5t119.5 77t84 81q-42 26 -100.5 48.5t-121.5 44t-124 43t-109 46.5t-77 54t-27 65q9 113 40.5 212.5t82 181t118.5 143t148 97t171 43.5t189 -16 l-65 -199q-110 18 -196.5 -6t-155.5 -76t-122 -124.5t-95 -151.5q33 -22 85 -44.5t111.5 -45.5t119.5 -46t110 -44.5t83.5 -41.5t38.5 -38z" />
<glyph unicode="&#x64a;" horiz-adv-x="1752" d="M1526 24q23 -82 14 -149t-32 -124q-38 -63 -102 -121.5t-152.5 -105t-200 -78t-244.5 -42.5q-111 -7 -215 4.5t-190 49t-148.5 105.5t-90.5 174t-15.5 254.5t76.5 347.5q7 21 18 53.5t23.5 66.5t25 66t21.5 53l68 -39q-14 -38 -29.5 -86.5t-34.5 -116.5 q-13 -53 -24.5 -114.5t-17 -125t-1 -127t24 -120.5t57 -104.5t98.5 -79.5t148 -45.5t206 -2.5q139 13 238.5 40.5t171 63.5t119.5 77t84 81q-42 26 -100.5 48.5t-121.5 44t-124 43t-109 46.5t-77 54t-27 65q9 113 40.5 212.5t82 181t118.5 143t148 97t171 43.5t189 -16 l-65 -199q-110 18 -196.5 -6t-155.5 -76t-122 -124.5t-95 -151.5q33 -22 85 -44.5t111.5 -45.5t119.5 -46t110 -44.5t83.5 -41.5t38.5 -38zM644 -1145l-148 149l147 149l150 -150zM1018 -1146l-150 149l149 149l148 -150z" />
<glyph unicode="&#x64b;" d="M344 1156l-392 -161v102l392 156v-97zM344 1396l-392 -161v103l392 154v-96z" />
<glyph unicode="&#x64c;" d="M358 1128l-18 3l-15 1q-26 -37 -62.5 -66t-79.5 -49.5t-89.5 -31t-92.5 -10.5h-17h-8t-9 1l-2 6q15 39 21.5 72t6.5 56q0 53 -22 53q-14 0 -51 -13t-80 -36l-4 4l17 95q15 9 33.5 18t36.5 16.5t33 12.5t24 5q19 0 32 -9.5t20.5 -26t10.5 -38t3 -45.5q0 -21 -1.5 -42 t-5.5 -40q20 -1 48 5t58.5 16.5t60.5 26t54 34.5q-51 12 -83.5 26t-51.5 31.5t-26 37.5t-7 43q0 30 14 60t38 54.5t55 40t65 15.5q31 0 51.5 -15.5t33 -40.5t17.5 -55t5 -59q0 -41 -10 -75q11 -2 23 -2.5t25 -1.5zM153 1328q0 -8 5.5 -21.5t22 -28.5t48 -30.5t83.5 -27.5 q3 7 4 14t1 15q0 26 -7.5 49t-20 40t-29 27t-34.5 10q-30 0 -51.5 -15t-21.5 -32z" />
<glyph unicode="&#x64d;" d="M351 -521l-392 -161v102l392 155v-96zM351 -281l-392 -161v103l392 154v-96z" />
<glyph unicode="&#x64e;" d="M394 1188l-392 -161v103l392 155v-97z" />
<glyph unicode="&#x64f;" d="M283 1143q-27 -35 -63.5 -62.5t-74 -48t-73.5 -35t-61 -23.5q-7 0 -26.5 1.5t-41 4.5t-39.5 7t-22 10l-2 7q43 17 88.5 35t88.5 37.5t81 40t67 41.5q-78 15 -117 45t-39 88q0 37 16 69.5t41 56.5t56.5 38t61.5 14q19 0 38.5 -9.5t36 -31t27 -57t10.5 -86.5q0 -15 -2 -28 t-6 -27q-5 -20 -12 -36t-15 -27q-9 -13 -18 -24zM110 1335q0 -34 43.5 -58.5t118.5 -38.5q3 12 3 23q0 22 -7.5 45t-20 41.5t-29 30t-33.5 11.5q-15 0 -28.5 -5t-24 -12.5t-16.5 -17.5t-6 -19z" />
<glyph unicode="&#x650;" d="M390 -337l-392 -161v103l392 155v-97z" />
<glyph unicode="&#x651;" d="M351 1413q3 0 12 -24t18.5 -58.5t16 -74t4.5 -69.5q-9 -27 -20 -51t-25.5 -42t-33 -29t-42.5 -14q-30 0 -56.5 11t-40.5 43q-9 -17 -20 -31t-27.5 -24t-39.5 -15.5t-55 -3.5q-39 5 -61.5 23t-32 43t-9 54.5t6 56.5t13.5 49.5t13 34.5l30 -13q0 -2 -1 -5q-2 -5 -3 -13 q-11 -55 1.5 -94t54.5 -47q28 3 46.5 19.5t30.5 40.5t19 53t13 57l37 4q3 -22 4.5 -43t-6.5 -55q7 -23 25 -38t47 -14q6 0 19.5 1t28.5 5.5t28 13t17 23.5q0 19 -8 43t-18.5 46.5t-20 39.5t-13.5 22l19 38q8 14 16 25.5t13 11.5z" />
<glyph unicode="&#x652;" d="M188 1414q22 0 48.5 -13t50.5 -38.5t41 -63.5t19 -89q2 -38 -15 -69t-42.5 -53.5t-54.5 -34.5t-50 -12q-35 1 -62.5 17t-47 41t-30 55t-10.5 59q0 47 16.5 84.5t39.5 63.5t49.5 39.5t47.5 13.5zM182 1142q51 2 85 23.5t45 44.5q2 4 -7 21t-28 35t-46 32.5t-61 14.5 q-13 0 -30 -5t-32 -15.5t-25.5 -25.5t-10.5 -35q12 -46 40 -69t70 -21z" />
<glyph unicode="&#x653;" d="M-191 1269q6 29 18.5 66.5t29 71.5t36.5 57.5t42 25.5q41 2 85 -2t90 -10t92 -11t92 -5q34 0 64 5.5t54.5 14t44 17.5t33.5 15l17 -21q-12 -20 -35 -48t-55.5 -54.5t-72 -46.5t-84.5 -24q-37 -5 -77.5 -2.5t-79.5 7.5t-74.5 10t-62.5 5q-25 -1 -45.5 -9.5t-37 -21.5 t-29 -28t-21.5 -28z" />
<glyph unicode="&#x654;" d="M-46 1216l116 65q-7 4 -22.5 16.5t-32 31.5t-30 44t-15.5 55q-2 29 17 68t49.5 74.5t68 60t72.5 24.5q50 0 94 -24t80 -88l-26 -13q-9 5 -42 16t-90 11q-29 0 -56 -13.5t-48 -31t-34 -34.5t-13 -24q0 -8 10 -26t31 -36.5t55 -34.5t82 -20q30 4 53 8t42.5 8t36.5 8.5 t35 9.5q1 1 -3.5 -14.5t-9.5 -33.5q-6 -22 -14 -49q-9 -2 -19.5 -3.5t-25.5 -4.5t-36.5 -8t-51.5 -12q-43 -9 -77 -19t-67.5 -23.5t-70.5 -31.5t-85 -43z" />
<glyph unicode="&#x655;" d="M36 -560l116 65q-7 4 -22.5 16.5t-32 31.5t-30 44t-15.5 55q-2 29 17 68t49.5 74.5t68 60t72.5 24.5q50 0 94 -24t80 -88l-26 -13q-9 5 -42 16t-90 11q-29 0 -56 -13.5t-48 -31t-34 -34.5t-13 -24q0 -8 10 -26t31 -36.5t55 -34.5t82 -20q30 4 53 8t42.5 8t36.5 8.5 t35 9.5q1 1 -3.5 -14.5t-9.5 -33.5q-6 -22 -14 -49q-9 -2 -19.5 -3.5t-25.5 -4.5t-36.5 -8t-51.5 -12q-43 -9 -77 -19t-67.5 -23.5t-70.5 -31.5t-85 -43z" />
<glyph unicode="&#x656;" d="M11 -709q-1 37 -3.5 81.5t-6 90.5t-7.5 91t-7.5 82t-6.5 64t-4 37q7 4 23.5 13.5t34 19.5t32.5 17t18 7q1 0 3 -7q0 -3 1 -7q0 -12 -0.5 -39.5t-1 -64t-2 -78t-3.5 -81.5t-5 -76t-6 -60q-3 -13 -12.5 -29t-20 -29.5t-18.5 -23t-8 -8.5z" />
<glyph unicode="&#x660;" horiz-adv-x="861" d="M696 521l-265 -265l-263 264l264 264z" />
<glyph unicode="&#x661;" horiz-adv-x="762" d="M449 -9q-2 157 -16.5 295t-38 257.5t-53.5 221t-61 186.5q-36 100 -77.5 186.5t-87.5 160.5l178 151q2 -1 27 -50.5t60 -135t73.5 -202t66.5 -252t39 -284.5t-8 -300q-5 -33 -9.5 -69.5t-8.5 -70.5t-8.5 -63t-10.5 -47z" />
<glyph unicode="&#x662;" horiz-adv-x="1149" d="M1046 1425q6 -69 1.5 -139t-20 -135t-43.5 -122t-69 -100t-96 -69.5t-124 -30.5q-99 -5 -180 19q30 -144 42.5 -300t-8.5 -314q-5 -34 -9 -70.5t-8.5 -70.5t-9.5 -62.5t-11 -46.5l-63 16q0 190 -21 356.5t-53.5 306.5t-71 252t-74.5 193q-3 5 -9 17t-14.5 28.5 t-18.5 35.5l-20 38q-24 45 -51 99q46 44 84 78q16 15 32 28.5t28.5 24t21.5 16t12 4.5l78 -168q24 -67 54 -119t70.5 -87t92.5 -53t120 -16q76 0 127 35t81 92t42.5 129.5t12.5 146.5z" />
<glyph unicode="&#x663;" horiz-adv-x="1439" d="M1334 1433q10 -48 10.5 -112t-8 -131t-27.5 -132t-48 -115.5t-69.5 -82t-92.5 -31.5q-33 0 -67 5.5t-65 24.5t-57 56t-41 101q-35 -68 -70.5 -105t-71 -54.5t-70.5 -21.5t-69 -6q-22 0 -44.5 5t-32.5 12q29 -145 41.5 -299t-7.5 -312q-6 -34 -11 -71.5t-10 -72.5 t-10.5 -64.5t-11.5 -47.5l-61 21q-2 202 -24.5 376t-57 318t-75 256.5t-76.5 192.5q-14 29 -31 61t-32 59q-18 32 -36 63q51 48 91 84q17 15 34 29.5t31 25.5t23.5 17t11.5 5l4 -9t9.5 -24t12.5 -34l14 -38l38 -104q52 -127 105 -192t111 -66q47 -1 85.5 18.5t69 52.5 t54.5 76.5t41.5 89.5t29.5 92t19 84l68 -11q-2 -54 -9 -118.5t-24 -132.5q10 -46 27 -76.5t38 -49t46 -26t52 -7.5q45 0 78 31t54 82t30.5 115.5t8.5 130.5v32z" />
<glyph unicode="&#x664;" horiz-adv-x="1149" d="M271 297q4 29 15.5 67.5t27.5 81t34.5 86t37 82t34.5 69.5t27 48q-22 8 -53 24.5t-63.5 37.5t-65.5 45t-59.5 47.5t-44.5 43.5t-21 34q3 12 11 38t19 58t23.5 67.5t24.5 67t22 56.5t16 36q40 51 133 120.5t246 157.5q-2 -7 -6.5 -25.5t-11 -43t-13.5 -51.5t-14 -50.5 t-13 -41t-9 -22.5l-78 -62q-81 -61 -134.5 -104t-82.5 -69q54 -54 139.5 -98t184.5 -70l55 -129q-15 -21 -40 -57.5t-54.5 -80.5t-60 -90.5t-55 -86.5t-40 -68.5t-15.5 -37.5q0 -13 18 -33t56 -39.5t96.5 -36t139.5 -21.5q25 -2 54 -0.5t59 5t59.5 9t55.5 12.5l26 -45 q-18 -26 -46 -54.5t-57.5 -53.5t-56 -43.5t-40.5 -25.5q-53 -4 -109 0.5t-109.5 17.5t-101 34.5t-83 50t-56.5 64.5t-21 79z" />
<glyph unicode="&#x665;" horiz-adv-x="1129" d="M115 465q0 187 71 398q18 51 41.5 102t50 97t55.5 85.5t57 67.5q31 33 63 60.5t61 47t53.5 30t41.5 7.5q54 -8 101.5 -25.5t89.5 -60.5t82.5 -104.5t64.5 -143.5q24 -83 41 -168t17 -174q0 -128 -16 -219.5t-47 -150.5q-30 -57 -77.5 -104.5t-104.5 -84.5 q-56 -38 -121 -56.5t-125 -18.5q-193 0 -296 102.5t-103 312.5zM545 292q33 0 67.5 6t67 17t61 26.5t49.5 35.5q22 20 38.5 43.5t30.5 50.5q27 57 27 84q0 113 -27.5 206.5t-72.5 171.5q-45 77 -106 115.5t-129 38.5q-14 0 -33 -6t-40 -17.5t-42.5 -27.5t-39.5 -36 q-33 -36 -63.5 -95t-54.5 -129q-48 -141 -48 -249q0 -59 23 -103t64.5 -73.5t99.5 -44t128 -14.5z" />
<glyph unicode="&#x666;" horiz-adv-x="1091" d="M862 -23q-96 238 -141 442q-45 205 -45 420q0 78 10.5 168.5t30.5 195.5q-21 -3 -65.5 -3.5t-102 2t-122.5 7t-127 11t-116.5 16t-89.5 20.5l60 217q84 -26 182 -37t192 -13.5t174 2.5t128 11l32 -42q-8 -31 -15.5 -76.5t-14 -91.5t-10.5 -84t-4 -54q0 -304 49 -528 q49 -226 147 -418z" />
<glyph unicode="&#x667;" horiz-adv-x="1313" d="M1257 1312q-135 -168 -247 -378q-47 -89 -93.5 -194.5t-85.5 -225t-66.5 -251.5t-36.5 -274h-106q-6 136 -32 266t-64 249t-85 225.5t-95 195.5q-56 106 -119 202t-133 185l136 194q1 -1 31 -38t75 -105.5t99 -166.5t103 -221t86.5 -269t50.5 -311q13 165 51 311 t87 269.5t103 221t99 166t75 105.5t31 38z" />
<glyph unicode="&#x668;" horiz-adv-x="1313" d="M66 156q135 168 247 378q47 88 93.5 194t85.5 225.5t66.5 251.5t36.5 274h106q6 -137 32 -266.5t64 -248.5t85 -225.5t95 -195.5q56 -106 120 -200t134 -183l-138 -198q-1 1 -31 38t-75 105.5t-99 166.5t-103 221t-86.5 269t-50.5 311q-13 -165 -51 -311t-87 -269.5 t-103 -221t-99 -166t-75 -105.5t-31 -38z" />
<glyph unicode="&#x669;" horiz-adv-x="1089" d="M783 785q10 -122 32.5 -218t51.5 -169.5t63 -126t68 -85.5l-69 -251q-65 63 -113.5 157t-81 199.5t-49 212.5t-17.5 197q-19 -9 -51 -15q-27 -6 -70 -10.5t-104 -4.5q-45 0 -103 21.5t-107.5 66t-77.5 112.5t-13 160q2 24 10.5 67t24.5 92.5t40.5 101t58 93t77.5 68 t99 26.5q71 -5 122 -43.5t87 -98t58.5 -133.5t35.5 -149.5t19 -146.5t9 -123zM676 911q-3 17 -10.5 50t-20 73t-32 81.5t-47.5 75.5t-66 55.5t-87 21.5q-39 0 -70.5 -16.5t-56.5 -42t-43.5 -56.5t-30 -59.5t-16.5 -50.5t-3 -31q5 -24 27.5 -45t58.5 -37t83.5 -25t101.5 -9 q43 0 81.5 2t67.5 5q34 4 63 8z" />
<glyph unicode="&#x66a;" horiz-adv-x="1042" d="M948 200l-187 -187l-189 188l187 188zM244 -42l-79 139q169 352 327 661.5t308 583.5q9 -23 19 -50.5t18 -51.5t14 -41.5t8 -21.5zM474 1113l-187 -187l-189 188l187 188z" />
<glyph unicode="&#x66b;" horiz-adv-x="777" d="M566 869h144l-481 -1084h-145z" />
<glyph unicode="&#x66c;" horiz-adv-x="519" d="M215 197h181l-168 -480h-111z" />
<glyph unicode="&#x66d;" horiz-adv-x="965" d="M487 1098l93 -324l335 12l5 -10l-281 -188l113 -316l-9 -6l-264 207l-262 -207l-8 6l113 316l-277 186l4 12l334 -12l92 324h12z" />
<glyph unicode="&#x66e;" horiz-adv-x="1949" d="M977 -28q-65 0 -145 2.5t-163.5 13t-165.5 32t-151 60t-120 97t-73 142t-9 195.5t72 258l73 -37q-40 -106 -41.5 -185.5t25 -138.5t75.5 -98.5t110.5 -64.5t130.5 -38.5t135 -19t124.5 -6t98.5 -0.5q43 0 109.5 3t144.5 10t161 17.5t159.5 25.5t139 34.5t100.5 44.5 q4 18 -2.5 49t-19.5 67t-30 74.5t-33.5 72.5t-31.5 59.5t-23 36.5q33 55 60 99q12 19 23 36.5t20.5 32t16 23t8.5 9.5q4 1 19.5 -24t34 -72t35.5 -113.5t23.5 -147t-2 -172.5t-39.5 -190q-42 -31 -107.5 -57t-142.5 -46.5t-161 -36.5t-164.5 -26.5t-151.5 -15.5t-122 -5z " />
<glyph unicode="&#x66f;" horiz-adv-x="1436" d="M1363 25q-7 -153 -51 -273t-127 -203.5t-206.5 -127.5t-288.5 -44q-120 0 -218.5 29t-170 88t-112 149.5t-45 213.5t31.5 279t118 347l67 -38q-34 -108 -63 -211.5t-41 -195.5t-1 -170t57.5 -136t135 -92.5t231.5 -39.5q138 0 241 29.5t172.5 82.5t106 126t42.5 162 q-22 -2 -52 -5q-26 -2 -62 -4t-82 -1q-34 0 -73 6t-78 20.5t-74.5 38.5t-62.5 61t-44 87.5t-17 118.5q0 30 9 73.5t27 92t45.5 96.5t63.5 86t81 62t98 24h2q55 -4 99 -29t78.5 -65.5t60.5 -93t44.5 -111t30.5 -119.5t18.5 -118.5t8.5 -107.5t0 -87zM1056 196q38 0 73 2t61 4 q31 3 57 6q-4 17 -11 49t-19.5 71t-32 80t-47 74.5t-65 55t-86.5 21.5h-2q-39 0 -70 -15t-55 -38t-41 -50.5t-27.5 -53.5t-15 -46.5t-2.5 -29.5q4 -24 26 -47.5t59 -41.5t87.5 -29.5t110.5 -11.5z" />
<glyph unicode="&#x670;" d="M25 1002q-1 37 -3.5 81.5t-6 90.5t-7.5 91t-7.5 82t-6.5 64t-4 37q7 4 23.5 13.5t34 19.5t32.5 17t18 7q1 0 3 -7q0 -3 1 -7q0 -12 -0.5 -39.5t-1 -64t-2 -78t-3.5 -81.5t-5 -76t-6 -60q-3 -13 -12.5 -29t-20 -29.5t-18.5 -23t-8 -8.5z" />
<glyph unicode="&#x671;" horiz-adv-x="557" d="M264 -16q-8 -11 -11.5 -8.5t-3.5 7.5q-2 147 -5 295.5t-7.5 286t-9.5 257t-10 208.5q-2 25 -3.5 59t-4 71.5t-4.5 77t-4 77.5q-4 88 -9 184q47 44 85 78q16 15 32 28.5t29 24t22 16t11 4.5q1 -1 3 -5t3 -11t2 -20q1 -50 1.5 -115.5t0.5 -135v-136.5v-119q0 -59 -1 -133.5 t-2.5 -157t-3.5 -169.5t-5.5 -171.5t-7.5 -163t-9 -143.5q-18 -41 -35 -77q-14 -31 -29 -62t-24 -47zM514 1898q-5 -28 -26 -53t-45 -54q-21 -14 -40.5 -20.5t-37 -9t-33 -2t-27.5 0.5q-33 3 -65.5 13t-61 21t-51.5 19.5t-36 8.5q-8 0 -19.5 -6t-24.5 -15.5t-26 -21 t-23 -21.5l-37 30q54 65 93.5 100.5t59.5 36.5q8 -2 18 -5.5t36 -11.5q60 74 117 115t95 40q9 0 32 -15.5t46.5 -39.5t41 -53t14.5 -57zM461 1895q-9 16 -22 30.5t-27 25t-28 16t-25 4.5q-31 -3 -65.5 -26.5t-78.5 -55.5q10 -5 39.5 -12.5t66 -10.5t74.5 2.5t66 26.5z" />
</font>
</defs>
</svg>
